  0
SECTION
  2
HEADER
  9
$ACADVER
  1
AC1015
  9
$ACADMAINTVER
 70
    18
  9
$DWGCODEPAGE
  3
ANSI_1252
  9
$INSBASE
 10
0.0
 20
0.0
 30
0.0
  9
$EXTMIN
 10
0.0
 20
0.0
 30
0.0
  9
$EXTMAX
 10
891.0
 20
630.0
 30
0.0
  9
$LIMMIN
 10
0.0
 20
0.0
  9
$LIMMAX
 10
891.0
 20
630.0
  9
$ORTHOMODE
 70
     0
  9
$REGENMODE
 70
     1
  9
$FILLMODE
 70
     1
  9
$QTEXTMODE
 70
     0
  9
$MIRRTEXT
 70
     0
  9
$LTSCALE
 40
3.0
  9
$ATTMODE
 70
     1
  9
$TEXTSIZE
 40
0.2
  9
$TRACEWID
 40
0.05
  9
$TEXTSTYLE
  7
Standard
  9
$CLAYER
  8
0
  9
$CELTYPE
  6
ByLayer
  9
$CECOLOR
 62
   256
  9
$CELTSCALE
 40
1.0
  9
$DISPSILH
 70
     0
  9
$DIMSCALE
 40
1.0
  9
$DIMASZ
 40
1.799999999999999
  9
$DIMEXO
 40
0.0625
  9
$DIMDLI
 40
0.38
  9
$DIMRND
 40
0.0
  9
$DIMDLE
 40
0.0
  9
$DIMEXE
 40
0.18
  9
$DIMTP
 40
0.0
  9
$DIMTM
 40
0.0
  9
$DIMTXT
 40
0.25
  9
$DIMCEN
 40
0.09
  9
$DIMTSZ
 40
0.0
  9
$DIMTOL
 70
     0
  9
$DIMLIM
 70
     0
  9
$DIMTIH
 70
     1
  9
$DIMTOH
 70
     1
  9
$DIMSE1
 70
     0
  9
$DIMSE2
 70
     0
  9
$DIMTAD
 70
     0
  9
$DIMZIN
 70
     0
  9
$DIMBLK
  1

  9
$DIMASO
 70
     1
  9
$DIMSHO
 70
     1
  9
$DIMPOST
  1

  9
$DIMAPOST
  1

  9
$DIMALT
 70
     0
  9
$DIMALTD
 70
     2
  9
$DIMALTF
 40
25.4
  9
$DIMLFAC
 40
1.0
  9
$DIMTOFL
 70
     0
  9
$DIMTVP
 40
0.0
  9
$DIMTIX
 70
     0
  9
$DIMSOXD
 70
     0
  9
$DIMSAH
 70
     0
  9
$DIMBLK1
  1

  9
$DIMBLK2
  1

  9
$DIMSTYLE
  2
Standard
  9
$DIMCLRD
 70
     0
  9
$DIMCLRE
 70
     0
  9
$DIMCLRT
 70
     0
  9
$DIMTFAC
 40
1.0
  9
$DIMGAP
 40
0.09
  9
$DIMJUST
 70
     0
  9
$DIMSD1
 70
     0
  9
$DIMSD2
 70
     0
  9
$DIMTOLJ
 70
     1
  9
$DIMTZIN
 70
     0
  9
$DIMALTZ
 70
     0
  9
$DIMALTTZ
 70
     0
  9
$DIMUPT
 70
     0
  9
$DIMDEC
 70
     4
  9
$DIMTDEC
 70
     4
  9
$DIMALTU
 70
     2
  9
$DIMALTTD
 70
     2
  9
$DIMTXSTY
  7
Standard
  9
$DIMAUNIT
 70
     0
  9
$DIMADEC
 70
     0
  9
$DIMALTRND
 40
0.0
  9
$DIMAZIN
 70
     0
  9
$DIMDSEP
 70
    46
  9
$DIMATFIT
 70
     3
  9
$DIMFRAC
 70
     0
  9
$DIMLDRBLK
  1

  9
$DIMLUNIT
 70
     2
  9
$DIMLWD
 70
    -2
  9
$DIMLWE
 70
    -2
  9
$DIMTMOVE
 70
     0
  9
$LUNITS
 70
     2
  9
$LUPREC
 70
     4
  9
$SKETCHINC
 40
0.1
  9
$FILLETRAD
 40
0.0
  9
$AUNITS
 70
     0
  9
$AUPREC
 70
     0
  9
$MENU
  1
.
  9
$ELEVATION
 40
0.0
  9
$PELEVATION
 40
0.0
  9
$THICKNESS
 40
0.0
  9
$LIMCHECK
 70
     0
  9
$CHAMFERA
 40
0.0
  9
$CHAMFERB
 40
0.0
  9
$CHAMFERC
 40
0.0
  9
$CHAMFERD
 40
0.0
  9
$SKPOLY
 70
     0
  9
$TDCREATE
 40
2454426.306893264
  9
$TDUCREATE
 40
2454426.265226598
  9
$TDUPDATE
 40
2454426.306893264
  9
$TDUUPDATE
 40
2454426.265226598
  9
$TDINDWG
 40
0.0000215162
  9
$TDUSRTIMER
 40
0.0000215162
  9
$USRTIMER
 70
     1
  9
$ANGBASE
 50
0.0
  9
$ANGDIR
 70
     0
  9
$PDMODE
 70
     0
  9
$PDSIZE
 40
0.0
  9
$PLINEWID
 40
0.0
  9
$SPLFRAME
 70
     0
  9
$SPLINETYPE
 70
     6
  9
$SPLINESEGS
 70
     8
  9
$HANDSEED
  5
818
  9
$SURFTAB1
 70
     6
  9
$SURFTAB2
 70
     6
  9
$SURFTYPE
 70
     6
  9
$SURFU
 70
     6
  9
$SURFV
 70
     6
  9
$UCSBASE
  2

  9
$UCSNAME
  2

  9
$UCSORG
 10
0.0
 20
0.0
 30
0.0
  9
$UCSXDIR
 10
1.0
 20
0.0
 30
0.0
  9
$UCSYDIR
 10
0.0
 20
1.0
 30
0.0
  9
$UCSORTHOREF
  2

  9
$UCSORTHOVIEW
 70
     0
  9
$UCSORGTOP
 10
0.0
 20
0.0
 30
0.0
  9
$UCSORGBOTTOM
 10
0.0
 20
0.0
 30
0.0
  9
$UCSORGLEFT
 10
0.0
 20
0.0
 30
0.0
  9
$UCSORGRIGHT
 10
0.0
 20
0.0
 30
0.0
  9
$UCSORGFRONT
 10
0.0
 20
0.0
 30
0.0
  9
$UCSORGBACK
 10
0.0
 20
0.0
 30
0.0
  9
$PUCSBASE
  2

  9
$PUCSNAME
  2

  9
$PUCSORG
 10
0.0
 20
0.0
 30
0.0
  9
$PUCSXDIR
 10
1.0
 20
0.0
 30
0.0
  9
$PUCSYDIR
 10
0.0
 20
1.0
 30
0.0
  9
$PUCSORTHOREF
  2

  9
$PUCSORTHOVIEW
 70
     0
  9
$PUCSORGTOP
 10
0.0
 20
0.0
 30
0.0
  9
$PUCSORGBOTTOM
 10
0.0
 20
0.0
 30
0.0
  9
$PUCSORGLEFT
 10
0.0
 20
0.0
 30
0.0
  9
$PUCSORGRIGHT
 10
0.0
 20
0.0
 30
0.0
  9
$PUCSORGFRONT
 10
0.0
 20
0.0
 30
0.0
  9
$PUCSORGBACK
 10
0.0
 20
0.0
 30
0.0
  9
$USERI1
 70
     0
  9
$USERI2
 70
     0
  9
$USERI3
 70
     0
  9
$USERI4
 70
     0
  9
$USERI5
 70
     0
  9
$USERR1
 40
0.0
  9
$USERR2
 40
0.0
  9
$USERR3
 40
0.0
  9
$USERR4
 40
0.0
  9
$USERR5
 40
0.0
  9
$WORLDVIEW
 70
     1
  9
$SHADEDGE
 70
     3
  9
$SHADEDIF
 70
    70
  9
$TILEMODE
 70
     1
  9
$MAXACTVP
 70
    64
  9
$PINSBASE
 10
0.0
 20
0.0
 30
0.0
  9
$PLIMCHECK
 70
     0
  9
$PEXTMIN
 10
0.0
 20
0.0
 30
0.0
  9
$PEXTMAX
 10
891.0
 20
630.0
 30
0.0
  9
$PLIMMIN
 10
0.0
 20
0.0
  9
$PLIMMAX
 10
891.0
 20
630.0
  9
$UNITMODE
 70
     0
  9
$VISRETAIN
 70
     1
  9
$PLINEGEN
 70
     0
  9
$PSLTSCALE
 70
     1
  9
$TREEDEPTH
 70
  3020
  9
$CMLSTYLE
  2
Standard
  9
$CMLJUST
 70
     0
  9
$CMLSCALE
 40
1.0
  9
$PROXYGRAPHICS
 70
     1
  9
$MEASUREMENT
 70
     1
  9
$CELWEIGHT
370
    -1
  9
$ENDCAPS
280
     0
  9
$JOINSTYLE
280
     0
  9
$LWDISPLAY
290
     0
  9
$INSUNITS
 70
     4
  9
$HYPERLINKBASE
  1

  9
$STYLESHEET
  1

  9
$XEDIT
290
     1
  9
$CEPSNTYPE
380
     0
  9
$PSTYLEMODE
290
     1
  9
$FINGERPRINTGUID
  2
{0937FAC3-9A09-4BE5-A009-B2ED3CE964F1}
  9
$VERSIONGUID
  2
{96CEC21C-6734-41D3-AE69-817F66A50B48}
  9
$EXTNAMES
290
     1
  9
$PSVPSCALE
 40
0.0
  9
$OLESTARTUP
290
     0
  0
ENDSEC
  0
SECTION
  2
CLASSES
  0
CLASS
  1
ACDBDICTIONARYWDFLT
  2
AcDbDictionaryWithDefault
  3
ObjectDBX Classes
 90
        0
280
     0
281
     0
  0
CLASS
  1
MATERIAL
  2
AcDbMaterial
  3
ObjectDBX Classes
 90
     1153
280
     0
281
     0
  0
CLASS
  1
VISUALSTYLE
  2
AcDbVisualStyle
  3
ObjectDBX Classes
 90
     4095
280
     0
281
     0
  0
CLASS
  1
SCALE
  2
AcDbScale
  3
ObjectDBX Classes
 90
     1153
280
     0
281
     0
  0
CLASS
  1
TABLESTYLE
  2
AcDbTableStyle
  3
ObjectDBX Classes
 90
     4095
280
     0
281
     0
  0
CLASS
  1
MLEADERSTYLE
  2
AcDbMLeaderStyle
  3
ACDB_MLEADERSTYLE_CLASS
 90
     4095
280
     0
281
     0
  0
CLASS
  1
DICTIONARYVAR
  2
AcDbDictionaryVar
  3
ObjectDBX Classes
 90
        0
280
     0
281
     0
  0
CLASS
  1
CELLSTYLEMAP
  2
AcDbCellStyleMap
  3
ObjectDBX Classes
 90
     1152
280
     0
281
     0
  0
CLASS
  1
ACDBPLACEHOLDER
  2
AcDbPlaceHolder
  3
ObjectDBX Classes
 90
        0
280
     0
281
     0
  0
CLASS
  1
LAYOUT
  2
AcDbLayout
  3
ObjectDBX Classes
 90
        0
280
     0
281
     0
  0
ENDSEC
  0
SECTION
  2
TABLES
  0
TABLE
  2
VPORT
  5
8
330
0
100
AcDbSymbolTable
 70
     1
  0
VPORT
  5
5F
330
8
100
AcDbSymbolTableRecord
100
AcDbViewportTableRecord
  2
*Active
 70
     0
 10
0.0
 20
0.0
 11
1.0
 21
1.0
 12
445.5
 22
315.0
 13
0.0
 23
0.0
 14
1.0
 24
1.0
 15
0.0
 25
0.0
 16
0.0
 26
0.0
 36
1.0
 17
0.0
 27
0.0
 37
0.0
 40
630.0
 41
1.414285714285714
 42
50.0
 43
0.0
 44
0.0
 50
0.0
 51
0.0
 71
     0
 72
   100
 73
     1
 74
     1
 75
     0
 76
     0
 77
     0
 78
     0
281
     0
 65
     1
110
0.0
120
0.0
130
0.0
111
1.0
121
0.0
131
0.0
112
0.0
122
1.0
132
0.0
 79
     0
146
0.0
  0
ENDTAB
  0
TABLE
  2
LTYPE
  5
5
330
0
100
AcDbSymbolTable
 70
    59
  0
LTYPE
  5
63
330
5
100
AcDbSymbolTableRecord
100
AcDbLinetypeTableRecord
  2
ByBlock
 70
     0
  3

 72
    65
 73
     0
 40
0.0
  0
LTYPE
  5
64
330
5
100
AcDbSymbolTableRecord
100
AcDbLinetypeTableRecord
  2
ByLayer
 70
     0
  3

 72
    65
 73
     0
 40
0.0
  0
LTYPE
  5
65
330
5
100
AcDbSymbolTableRecord
100
AcDbLinetypeTableRecord
  2
Continuous
 70
     0
  3
Solid line
 72
    65
 73
     0
 40
0.0
  0
LTYPE
  5
7D
330
5
100
AcDbSymbolTableRecord
100
AcDbLinetypeTableRecord
  2
Section_View_Lines
 70
     0
  3
Section View Lines
 72
    65
 73
     4
 40
0.8406
 49
0.6614
 74
     0
 49
-0.0827
 74
     0
 49
0.0138
 74
     0
 49
-0.0827
 74
     0
  0
LTYPE
  5
7E
330
5
100
AcDbSymbolTableRecord
100
AcDbLinetypeTableRecord
  2
CHAIN
 70
     0
  3
Chain ____ _ ____ _ ____ _ ____ _ ____ _ ____
 72
    65
 73
     4
 40
0.3543
 49
0.2362
 74
     0
 49
-0.0295
 74
     0
 49
0.0591
 74
     0
 49
-0.0295
 74
     0
  0
LTYPE
  5
7F
330
5
100
AcDbSymbolTableRecord
100
AcDbLinetypeTableRecord
  2
DASH_DOT
 70
     0
  3
Dash dot _._._._._._._._._._._._._._._.
 72
    65
 73
     4
 40
0.37
 49
0.24
 74
     0
 49
-0.06
 74
     0
 49
0.01
 74
     0
 49
-0.06
 74
     0
  0
LTYPE
  5
80
330
5
100
AcDbSymbolTableRecord
100
AcDbLinetypeTableRecord
  2
DASH_DOUBLE_DOT
 70
     0
  3
Dash Double Dot __ __ . __ __ . __ __ . __ _
 72
    65
 73
     6
 40
0.4398
 49
0.24
 74
     0
 49
-0.06
 74
     0
 49
0.0098
 74
     0
 49
-0.06
 74
     0
 49
0.01
 74
     0
 49
-0.06
 74
     0
  0
LTYPE
  5
81
330
5
100
AcDbSymbolTableRecord
100
AcDbLinetypeTableRecord
  2
DASH_TRIPLE_DOT
 70
     0
  3
Dash Triple-Dot _ . . . _ . . . _ . . . _
 72
    65
 73
     8
 40
0.51
 49
0.24
 74
     0
 49
-0.06
 74
     0
 49
0.01
 74
     0
 49
-0.06
 74
     0
 49
0.01
 74
     0
 49
-0.06
 74
     0
 49
0.01
 74
     0
 49
-0.06
 74
     0
  0
LTYPE
  5
82
330
5
100
AcDbSymbolTableRecord
100
AcDbLinetypeTableRecord
  2
DASHED
 70
     0
  3
Dashed __ __ __ __ __ __ __ __ __ __ __ __ __ _
 72
    65
 73
     2
 40
0.2067
 49
0.1654
 74
     0
 49
-0.0413
 74
     0
  0
LTYPE
  5
83
330
5
100
AcDbSymbolTableRecord
100
AcDbLinetypeTableRecord
  2
DASHED_SPACE
 70
     0
  3
Dashed Space _._._._._._._._._._._._._._._.
 72
    65
 73
     2
 40
0.2067
 49
0.1654
 74
     0
 49
-0.0413
 74
     0
  0
LTYPE
  5
84
330
5
100
AcDbSymbolTableRecord
100
AcDbLinetypeTableRecord
  2
DOTTED
 70
     0
  3
Dotted . . . . . . . . . . . . . . . . . . . . 
 72
    65
 73
     2
 40
0.0482
 49
0.0069
 74
     0
 49
-0.0413
 74
     0
  0
LTYPE
  5
85
330
5
100
AcDbSymbolTableRecord
100
AcDbLinetypeTableRecord
  2
DOUBLE_DASH_CHAIN
 70
     0
  3
Double Dash Chain ___ _ _ ___ _ _ ___ _ _ ___ _
 72
    65
 73
     6
 40
1.240299999999999
 49
0.6614
 74
     0
 49
-0.0827
 74
     0
 49
0.1654
 74
     0
 49
-0.0827
 74
     0
 49
0.1654
 74
     0
 49
-0.0827
 74
     0
  0
LTYPE
  5
86
330
5
100
AcDbSymbolTableRecord
100
AcDbLinetypeTableRecord
  2
DOUBLE_DASH_DOT
 70
     0
  3
Double Dash Dot __ __ . __ __ . __ __ . __ _
 72
    65
 73
     6
 40
0.67
 49
0.24
 74
     0
 49
-0.06
 74
     0
 49
0.24
 74
     0
 49
-0.06
 74
     0
 49
0.01
 74
     0
 49
-0.06
 74
     0
  0
LTYPE
  5
87
330
5
100
AcDbSymbolTableRecord
100
AcDbLinetypeTableRecord
  2
DOUBLE_DASH_DOUBLE_DOT
 70
     0
  3
Double-dash double-dot _ _ . . _ _ . . _
 72
    65
 73
     8
 40
0.7400000000000001
 49
0.24
 74
     0
 49
-0.06
 74
     0
 49
0.24
 74
     0
 49
-0.06
 74
     0
 49
0.01
 74
     0
 49
-0.06
 74
     0
 49
0.01
 74
     0
 49
-0.06
 74
     0
  0
LTYPE
  5
88
330
5
100
AcDbSymbolTableRecord
100
AcDbLinetypeTableRecord
  2
DOUBLE_DASH_TRIPLE_DOT
 70
     0
  3
Double Dash Triple Dot __ __ . . . __ __ . . .
 72
    65
 73
    10
 40
0.8100000000000001
 49
0.24
 74
     0
 49
-0.06
 74
     0
 49
0.24
 74
     0
 49
-0.06
 74
     0
 49
0.01
 74
     0
 49
-0.06
 74
     0
 49
0.01
 74
     0
 49
-0.06
 74
     0
 49
0.01
 74
     0
 49
-0.06
 74
     0
  0
LTYPE
  5
89
330
5
100
AcDbSymbolTableRecord
100
AcDbLinetypeTableRecord
  2
LONG_DASH_DOTTED
 70
     0
  3
Long-Dash Dot ____ . ____ . ____ . ____ . _
 72
    65
 73
     4
 40
0.3001
 49
0.2362
 74
     0
 49
-0.0295
 74
     0
 49
0.0049
 74
     0
 49
-0.0295
 74
     0
  0
LTYPE
  5
8A
330
5
100
AcDbSymbolTableRecord
100
AcDbLinetypeTableRecord
  2
LONG_DASH_DOUBLE_DOT
 70
     0
  3
Long Dash Double Dot ____ . . ____ . . ____ . .
 72
    65
 73
     6
 40
0.3345
 49
0.2362
 74
     0
 49
-0.0295
 74
     0
 49
0.0049
 74
     0
 49
-0.0295
 74
     0
 49
0.0049
 74
     0
 49
-0.0295
 74
     0
  0
LTYPE
  5
8B
330
5
100
AcDbSymbolTableRecord
100
AcDbLinetypeTableRecord
  2
LONG_DASH_TRIPLE_DOT
 70
     0
  3
Long Dash Triple Dot ____ ... ____ ... ____
 72
    65
 73
     8
 40
0.75
 49
0.48
 74
     0
 49
-0.06
 74
     0
 49
0.01
 74
     0
 49
-0.06
 74
     0
 49
0.01
 74
     0
 49
-0.06
 74
     0
 49
0.01
 74
     0
 49
-0.06
 74
     0
  0
LTYPE
  5
8C
330
5
100
AcDbSymbolTableRecord
100
AcDbLinetypeTableRecord
  2
BORDER
 70
     0
  3
Border __ __ . __ __ . __ __ . __ __ . __ __ .
 72
    65
 73
     6
 40
44.45
 49
12.7
 74
     0
 49
-6.349999999999999
 74
     0
 49
12.7
 74
     0
 49
-6.349999999999999
 74
     0
 49
0.0
 74
     0
 49
-6.349999999999999
 74
     0
  0
LTYPE
  5
8D
330
5
100
AcDbSymbolTableRecord
100
AcDbLinetypeTableRecord
  2
BORDER2
 70
     0
  3
Border (.5x) __.__.__.__.__.__.__.__.__.__.__.
 72
    65
 73
     6
 40
22.225
 49
6.349999999999999
 74
     0
 49
-3.174999999999999
 74
     0
 49
6.349999999999999
 74
     0
 49
-3.174999999999999
 74
     0
 49
0.0
 74
     0
 49
-3.174999999999999
 74
     0
  0
LTYPE
  5
8E
330
5
100
AcDbSymbolTableRecord
100
AcDbLinetypeTableRecord
  2
BORDERX2
 70
     0
  3
Border (2x) ____  ____  .  ____  ____  .  ___
 72
    65
 73
     6
 40
88.9
 49
25.4
 74
     0
 49
-12.7
 74
     0
 49
25.4
 74
     0
 49
-12.7
 74
     0
 49
0.0
 74
     0
 49
-12.7
 74
     0
  0
LTYPE
  5
8F
330
5
100
AcDbSymbolTableRecord
100
AcDbLinetypeTableRecord
  2
CENTER
 70
     0
  3
Center ____ _ ____ _ ____ _ ____ _ ____ _ ____
 72
    65
 73
     4
 40
50.8
 49
31.75
 74
     0
 49
-6.349999999999999
 74
     0
 49
6.349999999999999
 74
     0
 49
-6.349999999999999
 74
     0
  0
LTYPE
  5
90
330
5
100
AcDbSymbolTableRecord
100
AcDbLinetypeTableRecord
  2
CENTER2
 70
     0
  3
Center (.5x) ___ _ ___ _ ___ _ ___ _ ___ _ ___
 72
    65
 73
     4
 40
28.575
 49
19.05
 74
     0
 49
-3.174999999999999
 74
     0
 49
3.174999999999999
 74
     0
 49
-3.174999999999999
 74
     0
  0
LTYPE
  5
91
330
5
100
AcDbSymbolTableRecord
100
AcDbLinetypeTableRecord
  2
CENTERX2
 70
     0
  3
Center (2x) ________  __  ________  __  _____
 72
    65
 73
     4
 40
101.6
 49
63.5
 74
     0
 49
-12.7
 74
     0
 49
12.7
 74
     0
 49
-12.7
 74
     0
  0
LTYPE
  5
92
330
5
100
AcDbSymbolTableRecord
100
AcDbLinetypeTableRecord
  2
DASHDOT2
 70
     0
  3
Dash dot (.5x) _._._._._._._._._._._._._._._.
 72
    65
 73
     4
 40
12.7
 49
6.349999999999999
 74
     0
 49
-3.174999999999999
 74
     0
 49
0.0
 74
     0
 49
-3.174999999999999
 74
     0
  0
LTYPE
  5
93
330
5
100
AcDbSymbolTableRecord
100
AcDbLinetypeTableRecord
  2
DASHDOTX2
 70
     0
  3
Dash dot (2x) ____  .  ____  .  ____  .  ___
 72
    65
 73
     4
 40
50.8
 49
25.4
 74
     0
 49
-12.7
 74
     0
 49
0.0
 74
     0
 49
-12.7
 74
     0
  0
LTYPE
  5
94
330
5
100
AcDbSymbolTableRecord
100
AcDbLinetypeTableRecord
  2
DASHED2
 70
     0
  3
Dashed (.5x) _ _ _ _ _ _ _ _ _ _ _ _ _ _ _ _ _
 72
    65
 73
     2
 40
9.524999999999998
 49
6.349999999999999
 74
     0
 49
-3.174999999999999
 74
     0
  0
LTYPE
  5
95
330
5
100
AcDbSymbolTableRecord
100
AcDbLinetypeTableRecord
  2
DASHEDX2
 70
     0
  3
Dashed (2x) ____  ____  ____  ____  ____  ___
 72
    65
 73
     2
 40
38.1
 49
25.4
 74
     0
 49
-12.7
 74
     0
  0
LTYPE
  5
96
330
5
100
AcDbSymbolTableRecord
100
AcDbLinetypeTableRecord
  2
DIVIDE
 70
     0
  3
Divide ____ . . ____ . . ____ . . ____ . . ____
 72
    65
 73
     6
 40
31.75
 49
12.7
 74
     0
 49
-6.349999999999999
 74
     0
 49
0.0
 74
     0
 49
-6.349999999999999
 74
     0
 49
0.0
 74
     0
 49
-6.349999999999999
 74
     0
  0
LTYPE
  5
97
330
5
100
AcDbSymbolTableRecord
100
AcDbLinetypeTableRecord
  2
DIVIDE2
 70
     0
  3
Divide (.5x) __..__..__..__..__..__..__..__.._
 72
    65
 73
     6
 40
15.875
 49
6.349999999999999
 74
     0
 49
-3.174999999999999
 74
     0
 49
0.0
 74
     0
 49
-3.174999999999999
 74
     0
 49
0.0
 74
     0
 49
-3.174999999999999
 74
     0
  0
LTYPE
  5
98
330
5
100
AcDbSymbolTableRecord
100
AcDbLinetypeTableRecord
  2
DIVIDEX2
 70
     0
  3
Divide (2x) ________  .  .  ________  .  .  _
 72
    65
 73
     6
 40
63.49999999999999
 49
25.4
 74
     0
 49
-12.7
 74
     0
 49
0.0
 74
     0
 49
-12.7
 74
     0
 49
0.0
 74
     0
 49
-12.7
 74
     0
  0
LTYPE
  5
99
330
5
100
AcDbSymbolTableRecord
100
AcDbLinetypeTableRecord
  2
DOT
 70
     0
  3
Dot . . . . . . . . . . . . . . . . . . . . . .
 72
    65
 73
     2
 40
6.349999999999999
 49
0.0
 74
     0
 49
-6.349999999999999
 74
     0
  0
LTYPE
  5
9A
330
5
100
AcDbSymbolTableRecord
100
AcDbLinetypeTableRecord
  2
DOT2
 70
     0
  3
Dot (.5x) .....................................
 72
    65
 73
     2
 40
3.174999999999999
 49
0.0
 74
     0
 49
-3.174999999999999
 74
     0
  0
LTYPE
  5
9B
330
5
100
AcDbSymbolTableRecord
100
AcDbLinetypeTableRecord
  2
DOTX2
 70
     0
  3
Dot (2x) .  .  .  .  .  .  .  .  .  .  .  .  . 
 72
    65
 73
     2
 40
12.7
 49
0.0
 74
     0
 49
-12.7
 74
     0
  0
LTYPE
  5
9C
330
5
100
AcDbSymbolTableRecord
100
AcDbLinetypeTableRecord
  2
HIDDEN
 70
     0
  3
Hidden __ __ __ __ __ __ __ __ __ __ __ __ __ _
 72
    65
 73
     2
 40
9.524999999999998
 49
6.349999999999999
 74
     0
 49
-3.174999999999999
 74
     0
  0
LTYPE
  5
9D
330
5
100
AcDbSymbolTableRecord
100
AcDbLinetypeTableRecord
  2
HIDDEN2
 70
     0
  3
Hidden (.5x) _ _ _ _ _ _ _ _ _ _ _ _ _ _ _ _ _
 72
    65
 73
     2
 40
4.762499999999999
 49
3.174999999999999
 74
     0
 49
-1.587499999999999
 74
     0
  0
LTYPE
  5
9E
330
5
100
AcDbSymbolTableRecord
100
AcDbLinetypeTableRecord
  2
HIDDENX2
 70
     0
  3
Hidden (2x) ____ ____ ____ ____ ____ ____ ____
 72
    65
 73
     2
 40
19.05
 49
12.7
 74
     0
 49
-6.349999999999999
 74
     0
  0
LTYPE
  5
9F
330
5
100
AcDbSymbolTableRecord
100
AcDbLinetypeTableRecord
  2
PHANTOM
 70
     0
  3
Phantom ______  __  __  ______  __  __  ______
 72
    65
 73
     6
 40
63.5
 49
31.75
 74
     0
 49
-6.349999999999999
 74
     0
 49
6.349999999999999
 74
     0
 49
-6.349999999999999
 74
     0
 49
6.349999999999999
 74
     0
 49
-6.349999999999999
 74
     0
  0
LTYPE
  5
A0
330
5
100
AcDbSymbolTableRecord
100
AcDbLinetypeTableRecord
  2
PHANTOM2
 70
     0
  3
Phantom (.5x) ___ _ _ ___ _ _ ___ _ _ ___ _ _
 72
    65
 73
     6
 40
31.75
 49
15.875
 74
     0
 49
-3.174999999999999
 74
     0
 49
3.174999999999999
 74
     0
 49
-3.174999999999999
 74
     0
 49
3.174999999999999
 74
     0
 49
-3.174999999999999
 74
     0
  0
LTYPE
  5
A1
330
5
100
AcDbSymbolTableRecord
100
AcDbLinetypeTableRecord
  2
PHANTOMX2
 70
     0
  3
Phantom (2x) ____________    ____    ____   _
 72
    65
 73
     6
 40
127.0
 49
63.5
 74
     0
 49
-12.7
 74
     0
 49
12.7
 74
     0
 49
-12.7
 74
     0
 49
12.7
 74
     0
 49
-12.7
 74
     0
  0
LTYPE
  5
A2
330
5
100
AcDbSymbolTableRecord
100
AcDbLinetypeTableRecord
  2
ACAD_ISO02W100
 70
     0
  3
ISO dash __ __ __ __ __ __ __ __ __ __ __ __ __
 72
    65
 73
     2
 40
15.0
 49
12.0
 74
     0
 49
-3.0
 74
     0
  0
LTYPE
  5
A3
330
5
100
AcDbSymbolTableRecord
100
AcDbLinetypeTableRecord
  2
ACAD_ISO03W100
 70
     0
  3
ISO dash space __    __    __    __    __    __
 72
    65
 73
     2
 40
30.0
 49
12.0
 74
     0
 49
-18.0
 74
     0
  0
LTYPE
  5
A4
330
5
100
AcDbSymbolTableRecord
100
AcDbLinetypeTableRecord
  2
ACAD_ISO04W100
 70
     0
  3
ISO long-dash dot ____ . ____ . ____ . ____ . _
 72
    65
 73
     4
 40
30.0
 49
24.0
 74
     0
 49
-3.0
 74
     0
 49
0.0
 74
     0
 49
-3.0
 74
     0
  0
LTYPE
  5
A5
330
5
100
AcDbSymbolTableRecord
100
AcDbLinetypeTableRecord
  2
ACAD_ISO05W100
 70
     0
  3
ISO long-dash double-dot ____ .. ____ .. ____ .
 72
    65
 73
     6
 40
33.0
 49
24.0
 74
     0
 49
-3.0
 74
     0
 49
0.0
 74
     0
 49
-3.0
 74
     0
 49
0.0
 74
     0
 49
-3.0
 74
     0
  0
LTYPE
  5
A6
330
5
100
AcDbSymbolTableRecord
100
AcDbLinetypeTableRecord
  2
ACAD_ISO06W100
 70
     0
  3
ISO long-dash triple-dot ____ ... ____ ... ____
 72
    65
 73
     8
 40
36.0
 49
24.0
 74
     0
 49
-3.0
 74
     0
 49
0.0
 74
     0
 49
-3.0
 74
     0
 49
0.0
 74
     0
 49
-3.0
 74
     0
 49
0.0
 74
     0
 49
-3.0
 74
     0
  0
LTYPE
  5
A7
330
5
100
AcDbSymbolTableRecord
100
AcDbLinetypeTableRecord
  2
ACAD_ISO07W100
 70
     0
  3
ISO dot . . . . . . . . . . . . . . . . . . . .
 72
    65
 73
     2
 40
3.0
 49
0.0
 74
     0
 49
-3.0
 74
     0
  0
LTYPE
  5
A8
330
5
100
AcDbSymbolTableRecord
100
AcDbLinetypeTableRecord
  2
ACAD_ISO08W100
 70
     0
  3
ISO long-dash short-dash ____ __ ____ __ ____ _
 72
    65
 73
     4
 40
36.0
 49
24.0
 74
     0
 49
-3.0
 74
     0
 49
6.0
 74
     0
 49
-3.0
 74
     0
  0
LTYPE
  5
A9
330
5
100
AcDbSymbolTableRecord
100
AcDbLinetypeTableRecord
  2
ACAD_ISO09W100
 70
     0
  3
ISO long-dash double-short-dash ____ __ __ ____
 72
    65
 73
     6
 40
45.0
 49
24.0
 74
     0
 49
-3.0
 74
     0
 49
6.0
 74
     0
 49
-3.0
 74
     0
 49
6.0
 74
     0
 49
-3.0
 74
     0
  0
LTYPE
  5
AA
330
5
100
AcDbSymbolTableRecord
100
AcDbLinetypeTableRecord
  2
ACAD_ISO10W100
 70
     0
  3
ISO dash dot __ . __ . __ . __ . __ . __ . __ .
 72
    65
 73
     4
 40
18.0
 49
12.0
 74
     0
 49
-3.0
 74
     0
 49
0.0
 74
     0
 49
-3.0
 74
     0
  0
LTYPE
  5
AB
330
5
100
AcDbSymbolTableRecord
100
AcDbLinetypeTableRecord
  2
ACAD_ISO11W100
 70
     0
  3
ISO double-dash dot __ __ . __ __ . __ __ . __ 
 72
    65
 73
     6
 40
33.0
 49
12.0
 74
     0
 49
-3.0
 74
     0
 49
12.0
 74
     0
 49
-3.0
 74
     0
 49
0.0
 74
     0
 49
-3.0
 74
     0
  0
LTYPE
  5
AC
330
5
100
AcDbSymbolTableRecord
100
AcDbLinetypeTableRecord
  2
ACAD_ISO12W100
 70
     0
  3
ISO dash double-dot __ . . __ . . __ . . __ . .
 72
    65
 73
     6
 40
21.0
 49
12.0
 74
     0
 49
-3.0
 74
     0
 49
0.0
 74
     0
 49
-3.0
 74
     0
 49
0.0
 74
     0
 49
-3.0
 74
     0
  0
LTYPE
  5
AD
330
5
100
AcDbSymbolTableRecord
100
AcDbLinetypeTableRecord
  2
ACAD_ISO13W100
 70
     0
  3
ISO double-dash double-dot __ __ . . __ __ . . 
 72
    65
 73
     8
 40
36.0
 49
12.0
 74
     0
 49
-3.0
 74
     0
 49
12.0
 74
     0
 49
-3.0
 74
     0
 49
0.0
 74
     0
 49
-3.0
 74
     0
 49
0.0
 74
     0
 49
-3.0
 74
     0
  0
LTYPE
  5
AE
330
5
100
AcDbSymbolTableRecord
100
AcDbLinetypeTableRecord
  2
ACAD_ISO14W100
 70
     0
  3
ISO dash triple-dot __ . . . __ . . . __ . . . 
 72
    65
 73
     8
 40
24.0
 49
12.0
 74
     0
 49
-3.0
 74
     0
 49
0.0
 74
     0
 49
-3.0
 74
     0
 49
0.0
 74
     0
 49
-3.0
 74
     0
 49
0.0
 74
     0
 49
-3.0
 74
     0
  0
LTYPE
  5
AF
330
5
100
AcDbSymbolTableRecord
100
AcDbLinetypeTableRecord
  2
ACAD_ISO15W100
 70
     0
  3
ISO double-dash triple-dot __ __ . . . __ __ . 
 72
    65
 73
    10
 40
39.0
 49
12.0
 74
     0
 49
-3.0
 74
     0
 49
12.0
 74
     0
 49
-3.0
 74
     0
 49
0.0
 74
     0
 49
-3.0
 74
     0
 49
0.0
 74
     0
 49
-3.0
 74
     0
 49
0.0
 74
     0
 49
-3.0
 74
     0
  0
LTYPE
  5
B2
330
5
100
AcDbSymbolTableRecord
100
AcDbLinetypeTableRecord
  2
FENCELINE1
 70
     0
  3
Fenceline circle ----0-----0----0-----0----0---
 72
    65
 73
     4
 40
36.83
 49
6.349999999999999
 74
     0
 49
-2.54
 74
     4
 75
   133
340
B1
 46
2.54
 50
0.0
 44
-2.54
 45
0.0
 49
-2.54
 74
     0
 49
25.4
 74
     0
  0
LTYPE
  5
B3
330
5
100
AcDbSymbolTableRecord
100
AcDbLinetypeTableRecord
  2
FENCELINE2
 70
     0
  3
Fenceline square ----[]-----[]----[]-----[]----
 72
    65
 73
     4
 40
36.83
 49
6.349999999999999
 74
     0
 49
-2.54
 74
     4
 75
   132
340
B1
 46
2.54
 50
0.0
 44
-2.54
 45
0.0
 49
-2.54
 74
     0
 49
25.4
 74
     0
  0
LTYPE
  5
B4
330
5
100
AcDbSymbolTableRecord
100
AcDbLinetypeTableRecord
  2
TRACKS
 70
     0
  3
Tracks -|-|-|-|-|-|-|-|-|-|-|-|-|-|-|-|-|-|-|-|
 72
    65
 73
     2
 40
7.62
 49
3.81
 74
     4
 75
   130
340
B1
 46
6.349999999999999
 50
0.0
 44
0.0
 45
0.0
 49
3.81
 74
     0
  0
LTYPE
  5
B5
330
5
100
AcDbSymbolTableRecord
100
AcDbLinetypeTableRecord
  2
BATTING
 70
     0
  3
Batting SSSSSSSSSSSSSSSSSSSSSSSSSSSSSSSSSSSSSSS
 72
    65
 73
     4
 40
10.16254
 49
0.00254
 74
     0
 49
-2.54
 74
     4
 75
   134
340
B1
 46
2.54
 50
0.0
 44
-2.54
 45
0.0
 49
-5.08
 74
     4
 75
   134
340
B1
 46
2.54
 50
180.0
 44
2.54
 45
0.0
 49
-2.54
 74
     0
  0
LTYPE
  5
B6
330
5
100
AcDbSymbolTableRecord
100
AcDbLinetypeTableRecord
  2
HOT_WATER_SUPPLY
 70
     0
  3
Hot water supply ---- HW ---- HW ---- HW ----
 72
    65
 73
     3
 40
22.86
 49
12.7
 74
     0
 49
-5.08
 74
     2
 75
     0
340
5D
 46
2.54
 50
0.0
 44
-2.54
 45
-1.27
  9
HW
 49
-5.08
 74
     0
  0
LTYPE
  5
B7
330
5
100
AcDbSymbolTableRecord
100
AcDbLinetypeTableRecord
  2
GAS_LINE
 70
     0
  3
Gas line ----GAS----GAS----GAS----GAS----GAS---
 72
    65
 73
     3
 40
24.13
 49
12.7
 74
     0
 49
-5.08
 74
     2
 75
     0
340
5D
 46
2.54
 50
0.0
 44
-2.54
 45
-1.27
  9
GAS
 49
-6.349999999999999
 74
     0
  0
LTYPE
  5
B8
330
5
100
AcDbSymbolTableRecord
100
AcDbLinetypeTableRecord
  2
ZIGZAG
 70
     0
  3
Zig zag /\/\/\/\/\/\/\/\/\/\/\/\/\/\/\/\/\/\/\/
 72
    65
 73
     4
 40
20.32254
 49
0.00254
 74
     0
 49
-5.08
 74
     4
 75
   131
340
B1
 46
5.08
 50
0.0
 44
-5.08
 45
0.0
 49
-10.16
 74
     4
 75
   131
340
B1
 46
5.08
 50
180.0
 44
5.08
 45
0.0
 49
-5.08
 74
     0
  0
ENDTAB
  0
TABLE
  2
LAYER
  5
2
330
0
100
AcDbSymbolTable
 70
    33
  0
LAYER
  5
5C
330
2
100
AcDbSymbolTableRecord
100
AcDbLayerTableRecord
  2
0
 70
     0
 62
     7
  6
Continuous
370
    -3
390
F
  0
LAYER
  5
BD
330
2
100
AcDbSymbolTableRecord
100
AcDbLayerTableRecord
  2
Bemaßungen(DIN)
 70
     0
 62
     7
  6
Continuous
370
    25
390
F
  0
LAYER
  5
C6
330
2
100
AcDbSymbolTableRecord
100
AcDbLayerTableRecord
  2
Mittellinie(DIN)
 70
     0
 62
     7
  6
Continuous
370
    25
390
F
  0
LAYER
  5
C7
330
2
100
AcDbSymbolTableRecord
100
AcDbLayerTableRecord
  2
Mittelpunktmarkierung(DIN)
 70
     0
 62
     7
  6
Continuous
370
    25
390
F
  0
LAYER
  5
CC
330
2
100
AcDbSymbolTableRecord
100
AcDbLayerTableRecord
  2
Sichtbare Kanten(DIN)
 70
     0
 62
     7
  6
Continuous
370
    50
390
F
  0
LAYER
  5
CD
330
2
100
AcDbSymbolTableRecord
100
AcDbLayerTableRecord
  2
Sichtbare tangentiale Kanten(DIN)
 70
     0
 62
     7
  6
Continuous
370
    50
390
F
  0
LAYER
  5
D2
330
2
100
AcDbSymbolTableRecord
100
AcDbLayerTableRecord
  2
Symbole(DIN)
 70
     0
 62
     7
  6
Continuous
370
    25
390
F
  0
LAYER
  5
D6
330
2
100
AcDbSymbolTableRecord
100
AcDbLayerTableRecord
  2
Verdeckte Kanten(DIN)
 70
     0
 62
     7
  6
DASHED
370
    35
390
F
  0
LAYER
  5
276
330
2
100
AcDbSymbolTableRecord
100
AcDbLayerTableRecord
  2
Defpoints
 70
     0
 62
     7
  6
Continuous
290
     0
370
    -3
390
F
  0
ENDTAB
  0
TABLE
  2
STYLE
  5
3
330
0
100
AcDbSymbolTable
 70
    18
  0
STYLE
  5
5D
330
3
100
AcDbSymbolTableRecord
100
AcDbTextStyleTableRecord
  2
Standard
 70
     0
 40
0.0
 41
1.0
 50
0.0
 71
     0
 42
0.2
  3
ARIAL.TTF
  4

1001
ACAD
1000
Arial
1071
      256
  0
STYLE
  5
62
330
3
100
AcDbSymbolTableRecord
100
AcDbTextStyleTableRecord
  2
Annotative
 70
     0
 40
0.0
 41
1.0
 50
0.0
 71
     0
 42
0.2
  3

  4

1001
AcadAnnotative
1000
AnnotativeData
1002
{
1070
     1
1070
     1
1002
}
  0
STYLE
  5
B1
330
3
100
AcDbSymbolTableRecord
100
AcDbTextStyleTableRecord
  2

 70
     1
 40
0.0
 41
1.0
 50
0.0
 71
     0
 42
0.2
  3
ltypeshp.shx
  4

  0
STYLE
  5
D8
330
3
100
AcDbSymbolTableRecord
100
AcDbTextStyleTableRecord
  2
Aktuell-BSI
 70
     0
 40
0.0
 41
1.0
 50
0.0
 71
     0
 42
0.2
  3
ARIAL.TTF
  4

1001
ACAD
1000
Arial
1071
      256
  0
STYLE
  5
D9
330
3
100
AcDbSymbolTableRecord
100
AcDbTextStyleTableRecord
  2
Aktuell-DIN
 70
     0
 40
0.0
 41
0.899999976158142
 50
0.0
 71
     0
 42
0.2
  3
ARIAL.TTF
  4

1001
ACAD
1000
Arial
1071
      256
  0
STYLE
  5
DA
330
3
100
AcDbSymbolTableRecord
100
AcDbTextStyleTableRecord
  2
Bezeichnungstext (ANSI)
 70
     0
 40
0.0
 41
1.0
 50
0.0
 71
     0
 42
0.2
  3
TAHOMA.TTF
  4

1001
ACAD
1000
Tahoma
1071
      256
  0
STYLE
  5
DB
330
3
100
AcDbSymbolTableRecord
100
AcDbTextStyleTableRecord
  2
Bezeichnungstext (DIN)
 70
     0
 40
0.0
 41
1.0
 50
0.0
 71
     0
 42
0.2
  3
isocpeur.ttf
  4

1001
ACAD
1000
ISOCPEUR
1071
      256
  0
STYLE
  5
DC
330
3
100
AcDbSymbolTableRecord
100
AcDbTextStyleTableRecord
  2
Bezeichnungstext (ISO)
 70
     0
 40
0.0
 41
1.0
 50
0.0
 71
     0
 42
0.2
  3
TAHOMA.TTF
  4

1001
ACAD
1000
Tahoma
1071
      256
  0
STYLE
  5
DD
330
3
100
AcDbSymbolTableRecord
100
AcDbTextStyleTableRecord
  2
Bezeichnungstext (JIS)
 70
     0
 40
0.0
 41
1.0
 50
0.0
 71
     0
 42
0.2
  3
TAHOMA.TTF
  4

1001
ACAD
1000
Tahoma
1071
      256
  0
STYLE
  5
DE
330
3
100
AcDbSymbolTableRecord
100
AcDbTextStyleTableRecord
  2
Notiztext (ANSI)
 70
     0
 40
0.0
 41
1.0
 50
0.0
 71
     0
 42
0.2
  3
TAHOMA.TTF
  4

1001
ACAD
1000
Tahoma
1071
      256
  0
STYLE
  5
DF
330
3
100
AcDbSymbolTableRecord
100
AcDbTextStyleTableRecord
  2
Notiztext (DIN)
 70
     0
 40
0.0
 41
1.0
 50
0.0
 71
     0
 42
0.2
  3
isocpeur.ttf
  4

1001
ACAD
1000
ISOCPEUR
1071
      256
  0
STYLE
  5
E0
330
3
100
AcDbSymbolTableRecord
100
AcDbTextStyleTableRecord
  2
Notiztext (ISO)
 70
     0
 40
0.0
 41
1.0
 50
0.0
 71
     0
 42
0.2
  3
TAHOMA.TTF
  4

1001
ACAD
1000
Tahoma
1071
      256
  0
STYLE
  5
E1
330
3
100
AcDbSymbolTableRecord
100
AcDbTextStyleTableRecord
  2
Notiztext (JIS)
 70
     0
 40
0.0
 41
1.0
 50
0.0
 71
     0
 42
0.2
  3
TAHOMA.TTF
  4

1001
ACAD
1000
Tahoma
1071
      256
  0
STYLE
  5
E2
330
3
100
AcDbSymbolTableRecord
100
AcDbTextStyleTableRecord
  2
STANDARD-DIN
 70
     0
 40
0.0
 41
1.0
 50
0.0
 71
     0
 42
0.2
  3
ARIAL.TTF
  4

1001
ACAD
1000
Arial
1071
      256
  0
STYLE
  5
E3
330
3
100
AcDbSymbolTableRecord
100
AcDbTextStyleTableRecord
  2
STANDARD-DINNach Layer
 70
     0
 40
0.0
 41
1.0
 50
0.0
 71
     0
 42
0.2
  3
ARIAL.TTF
  4

1001
ACAD
1000
Arial
1071
      256
  0
STYLE
  5
E4
330
3
100
AcDbSymbolTableRecord
100
AcDbTextStyleTableRecord
  2
STANDARDGroßer Text
 70
     0
 40
0.0
 41
1.0
 50
0.0
 71
     0
 42
0.2
  3
ARIAL.TTF
  4

1001
ACAD
1000
Arial
1071
      256
  0
STYLE
  5
E5
330
3
100
AcDbSymbolTableRecord
100
AcDbTextStyleTableRecord
  2
STANDARDNach Layer
 70
     0
 40
0.0
 41
1.0
 50
0.0
 71
     0
 42
0.2
  3
ARIAL.TTF
  4

1001
ACAD
1000
Arial
1071
      256
  0
STYLE
  5
E6
330
3
100
AcDbSymbolTableRecord
100
AcDbTextStyleTableRecord
  2
StüLiDaten
 70
     0
 40
0.0
 41
1.0
 50
0.0
 71
     0
 42
0.2
  3
ARIAL.TTF
  4

1001
ACAD
1000
Arial
1071
      256
  0
ENDTAB
  0
TABLE
  2
VIEW
  5
6
330
0
100
AcDbSymbolTable
 70
     0
  0
ENDTAB
  0
TABLE
  2
UCS
  5
7
330
0
100
AcDbSymbolTable
 70
     0
  0
ENDTAB
  0
TABLE
  2
APPID
  5
9
330
0
100
AcDbSymbolTable
 70
     4
  0
APPID
  5
5E
330
9
100
AcDbSymbolTableRecord
100
AcDbRegAppTableRecord
  2
ACAD
 70
     0
  0
APPID
  5
66
330
9
100
AcDbSymbolTableRecord
100
AcDbRegAppTableRecord
  2
AcadAnnotative
 70
     0
  0
APPID
  5
70
330
9
100
AcDbSymbolTableRecord
100
AcDbRegAppTableRecord
  2
ACAD_MLEADERVER
 70
     0
  0
APPID
  5
573
330
9
100
AcDbSymbolTableRecord
100
AcDbRegAppTableRecord
  2
ACAD_DSTYLE_DIMRADIAL_EXTENSION
 70
     0
  0
ENDTAB
  0
TABLE
  2
DIMSTYLE
  5
A
330
0
100
AcDbSymbolTable
 70
    10
100
AcDbDimStyleTable
 71
     2
340
E7
340
60
  0
DIMSTYLE
105
60
330
A
100
AcDbSymbolTableRecord
100
AcDbDimStyleTableRecord
  2
Standard
 70
     0
340
5D
  0
DIMSTYLE
105
61
330
A
100
AcDbSymbolTableRecord
100
AcDbDimStyleTableRecord
  2
Annotative
 70
     0
340
5D
1001
AcadAnnotative
1000
AnnotativeData
1002
{
1070
     1
1070
     1
1002
}
  0
DIMSTYLE
105
E7
102
{ACAD_REACTORS
330
274
330
344
330
414
330
4E2
330
584
330
653
330
72C
102
}
330
A
100
AcDbSymbolTableRecord
100
AcDbDimStyleTableRecord
  2
DIN - Andere
 70
     0
 40
3.0
 41
2.5
 42
0.0
 43
5.999999999999999
 44
3.174999999999999
 45
0.00000001
 46
10.0
 73
     0
 74
     0
 77
     1
 78
     8
 79
     2
140
3.5
143
0.03937
147
0.8
171
     3
172
     1
176
     7
177
     7
178
     7
271
     2
272
     2
274
     3
278
    44
284
     8
286
     8
340
D8
371
    25
372
    25
  0
DIMSTYLE
105
E8
330
A
100
AcDbSymbolTableRecord
100
AcDbDimStyleTableRecord
  2
DIN - Andere$7
 70
     0
 40
3.0
 41
2.5
 42
0.0
 43
5.999999999999999
 44
3.174999999999999
 45
0.00000001
 46
10.0
 73
     0
 74
     0
 77
     1
 78
     8
 79
     2
140
3.5
143
0.03937
147
0.8
171
     3
172
     1
176
     7
177
     7
178
     7
271
     2
272
     2
274
     3
278
    44
284
     8
286
     8
340
D8
371
    25
372
    25
  0
DIMSTYLE
105
E9
330
A
100
AcDbSymbolTableRecord
100
AcDbDimStyleTableRecord
  2
DIN - AndereGroßer Text
 70
     0
 40
3.0
 41
5.0
 42
0.0
 43
5.999999999999999
 44
3.174999999999999
 45
0.00000001
 46
10.0
 73
     0
 74
     0
 77
     1
 78
     8
 79
     2
140
3.75
143
0.03937
146
0.9333333333333333
147
0.8
171
     3
172
     1
176
     7
177
     7
178
     7
271
     2
272
     2
274
     3
278
    44
284
     8
286
     8
340
E4
371
    25
372
    25
  0
DIMSTYLE
105
EA
330
A
100
AcDbSymbolTableRecord
100
AcDbDimStyleTableRecord
  2
DIN - AndereGroßer Text$7
 70
     0
 40
3.0
 41
5.0
 42
0.0
 43
5.999999999999999
 44
3.174999999999999
 45
0.00000001
 46
10.0
 73
     0
 74
     0
 77
     1
 78
     8
 79
     2
140
3.75
143
0.03937
146
0.9333333333333333
147
0.8
171
     3
172
     1
176
     7
177
     7
178
     7
271
     2
272
     2
274
     3
278
    44
284
     8
286
     8
340
E4
371
    25
372
    25
  0
DIMSTYLE
105
EB
330
A
100
AcDbSymbolTableRecord
100
AcDbDimStyleTableRecord
  2
Führungslinie-Ursprungsindikator(DIN)
 70
     0
 40
3.0
 41
2.5
340
5D
342
EC
  0
DIMSTYLE
105
FD
330
A
100
AcDbSymbolTableRecord
100
AcDbDimStyleTableRecord
  2
Führungslinie - Bezugsstelle(DIN)
 70
     0
 40
3.0
 41
2.5
340
5D
342
EC
  0
DIMSTYLE
105
FE
330
A
100
AcDbSymbolTableRecord
100
AcDbDimStyleTableRecord
  2
Führungslinie - Punkt(DIN)
 70
     0
 40
3.0
 41
2.5
340
5D
342
EC
  0
DIMSTYLE
105
FF
330
A
100
AcDbSymbolTableRecord
100
AcDbDimStyleTableRecord
  2
Führungslinie(DIN)
 70
     0
 40
3.0
 41
2.5
340
5D
342
EC
  0
ENDTAB
  0
TABLE
  2
BLOCK_RECORD
  5
1
330
0
100
AcDbSymbolTable
 70
    10
  0
BLOCK_RECORD
  5
75
330
1
100
AcDbSymbolTableRecord
100
AcDbBlockTableRecord
  2
*Model_Space
340
78
  0
BLOCK_RECORD
  5
71
330
1
100
AcDbSymbolTableRecord
100
AcDbBlockTableRecord
  2
*Paper_Space
340
74
  0
BLOCK_RECORD
  5
79
330
1
100
AcDbSymbolTableRecord
100
AcDbBlockTableRecord
  2
*Paper_Space0
340
7C
  0
BLOCK_RECORD
  5
EC
330
1
100
AcDbSymbolTableRecord
100
AcDbBlockTableRecord
  2
_Closed
340
0
  0
BLOCK_RECORD
  5
F3
330
1
100
AcDbSymbolTableRecord
100
AcDbBlockTableRecord
  2
DatumFilled45
340
0
  0
BLOCK_RECORD
  5
277
330
1
100
AcDbSymbolTableRecord
100
AcDbBlockTableRecord
  2
*D3
340
0
  0
BLOCK_RECORD
  5
345
330
1
100
AcDbSymbolTableRecord
100
AcDbBlockTableRecord
  2
*D4
340
0
  0
BLOCK_RECORD
  5
415
330
1
100
AcDbSymbolTableRecord
100
AcDbBlockTableRecord
  2
*D5
340
0
  0
BLOCK_RECORD
  5
4E3
330
1
100
AcDbSymbolTableRecord
100
AcDbBlockTableRecord
  2
*D6
340
0
  0
BLOCK_RECORD
  5
585
330
1
100
AcDbSymbolTableRecord
100
AcDbBlockTableRecord
  2
*D7
340
0
  0
BLOCK_RECORD
  5
654
330
1
100
AcDbSymbolTableRecord
100
AcDbBlockTableRecord
  2
*D8
340
0
  0
BLOCK_RECORD
  5
72D
330
1
100
AcDbSymbolTableRecord
100
AcDbBlockTableRecord
  2
*D9
340
0
  0
ENDTAB
  0
ENDSEC
  0
SECTION
  2
BLOCKS
  0
BLOCK
  5
76
330
75
100
AcDbEntity
  8
0
100
AcDbBlockBegin
  2
*Model_Space
 70
     0
 10
0.0
 20
0.0
 30
0.0
  3
*Model_Space
  1

  0
ENDBLK
  5
77
330
75
100
AcDbEntity
  8
0
100
AcDbBlockEnd
  0
BLOCK
  5
72
330
71
100
AcDbEntity
 67
     1
  8
0
100
AcDbBlockBegin
  2
*Paper_Space
 70
     0
 10
0.0
 20
0.0
 30
0.0
  3
*Paper_Space
  1

  0
ENDBLK
  5
73
330
71
100
AcDbEntity
 67
     1
  8
0
100
AcDbBlockEnd
  0
BLOCK
  5
7A
330
79
100
AcDbEntity
 67
     1
  8
0
100
AcDbBlockBegin
  2
*Paper_Space0
 70
     0
 10
0.0
 20
0.0
 30
0.0
  3
*Paper_Space0
  1

  0
ENDBLK
  5
7B
330
79
100
AcDbEntity
 67
     1
  8
0
100
AcDbBlockEnd
  0
BLOCK
  5
F1
330
EC
100
AcDbEntity
  8
0
100
AcDbBlockBegin
  2
_Closed
 70
     0
 10
0.0
 20
0.0
 30
0.0
  3
_Closed
  1

  0
LINE
  5
ED
330
EC
100
AcDbEntity
  8
0
  6
ByBlock
 62
     0
370
    -2
100
AcDbLine
 10
-1.0
 20
0.1666666666666666
 30
0.0
 11
0.0
 21
0.0
 31
0.0
  0
LINE
  5
EE
330
EC
100
AcDbEntity
  8
0
  6
ByBlock
 62
     0
370
    -2
100
AcDbLine
 10
0.0
 20
0.0
 30
0.0
 11
-1.0
 21
-0.1666666666666666
 31
0.0
  0
LINE
  5
EF
330
EC
100
AcDbEntity
  8
0
  6
ByBlock
 62
     0
370
    -2
100
AcDbLine
 10
-1.0
 20
0.1666666666666666
 30
0.0
 11
-1.0
 21
-0.1666666666666666
 31
0.0
  0
LINE
  5
F0
330
EC
100
AcDbEntity
  8
0
  6
ByBlock
 62
     0
370
    -2
100
AcDbLine
 10
0.0
 20
0.0
 30
0.0
 11
-1.0
 21
0.0
 31
0.0
  0
ENDBLK
  5
F2
330
EC
100
AcDbEntity
  8
0
100
AcDbBlockEnd
  0
BLOCK
  5
F4
330
F3
100
AcDbEntity
  8
0
100
AcDbBlockBegin
  2
DatumFilled45
 70
     0
 10
0.0
 20
0.0
 30
0.0
  3
DatumFilled45
  1

  0
POLYLINE
  5
F6
330
F3
100
AcDbEntity
  8
0
 62
     0
100
AcDb2dPolyline
 66
     1
 10
0.0
 20
0.0
 30
0.0
 70
   128
  0
VERTEX
  5
F7
330
F6
100
AcDbEntity
  8
0
 62
     0
100
AcDbVertex
100
AcDb2dVertex
 10
0.0
 20
1.0
 30
0.0
  0
VERTEX
  5
F8
330
F6
100
AcDbEntity
  8
0
 62
     0
100
AcDbVertex
100
AcDb2dVertex
 10
0.0
 20
-1.0
 30
0.0
  0
VERTEX
  5
FA
330
F6
100
AcDbEntity
  8
0
 62
     0
100
AcDbVertex
100
AcDb2dVertex
 10
-1.0
 20
0.0
 30
0.0
  0
VERTEX
  5
FB
330
F6
100
AcDbEntity
  8
0
 62
     0
100
AcDbVertex
100
AcDb2dVertex
 10
0.0
 20
1.0
 30
0.0
  0
SEQEND
  5
F9
330
F6
100
AcDbEntity
  8
0
 62
     0
  0
SOLID
  5
FC
330
F3
100
AcDbEntity
  8
0
 62
     0
100
AcDbTrace
 10
0.0
 20
1.0
 30
0.0
 11
0.0
 21
-1.0
 31
0.0
 12
-1.0
 22
0.0
 32
0.0
 13
0.0
 23
1.0
 33
0.0
  0
ENDBLK
  5
F5
330
F3
100
AcDbEntity
  8
0
100
AcDbBlockEnd
  0
BLOCK
  5
278
330
277
100
AcDbEntity
  8
0
100
AcDbBlockBegin
  2
*D3
 70
     1
 10
0.0
 20
0.0
 30
0.0
  3
*D3
  1

  0
LINE
  5
33B
330
277
100
AcDbEntity
  8
Bemaßungen(DIN)
  6
Continuous
 62
     7
370
    25
100
AcDbLine
 10
212.2834820938038
 20
239.7479251227745
 30
0.0
 11
212.2834820938038
 21
120.2229251227745
 31
0.0
  0
LINE
  5
33C
330
277
100
AcDbEntity
  8
Bemaßungen(DIN)
  6
Continuous
 62
     7
370
    25
100
AcDbLine
 10
712.2834820938036
 20
239.7479251227744
 30
0.0
 11
712.2834820938036
 21
120.2229251227745
 31
0.0
  0
LINE
  5
33D
330
277
100
AcDbEntity
  8
Bemaßungen(DIN)
  6
Continuous
 62
     7
370
    25
100
AcDbLine
 10
219.7834820938038
 20
129.7479251227745
 30
0.0
 11
704.7834820938036
 21
129.7479251227745
 31
0.0
  0
SOLID
  5
33E
330
277
100
AcDbEntity
  8
Bemaßungen(DIN)
  6
Continuous
 62
     7
100
AcDbTrace
 10
219.7834820938038
 20
130.9979251227745
 30
0.0
 11
219.7834820938038
 21
128.4979251227745
 31
0.0
 12
212.2834820938038
 22
129.7479251227745
 32
0.0
 13
212.2834820938038
 23
129.7479251227745
 33
0.0
  0
SOLID
  5
33F
330
277
100
AcDbEntity
  8
Bemaßungen(DIN)
  6
Continuous
 62
     7
100
AcDbTrace
 10
704.7834820938036
 20
130.9979251227745
 30
0.0
 11
704.7834820938036
 21
128.4979251227745
 31
0.0
 12
712.2834820938036
 22
129.7479251227745
 32
0.0
 13
712.2834820938036
 23
129.7479251227745
 33
0.0
  0
MTEXT
  5
340
330
277
100
AcDbEntity
  8
Bemaßungen(DIN)
  6
Continuous
 62
     7
370
    25
100
AcDbMText
 10
409.9231478509661
 20
143.0060424488318
 30
0.0
 40
10.5
 41
0.0
 71
     1
 72
     1
  1
\A1;500 / 750 / 1000
  7
Aktuell-BSI
 73
     1
 44
1.0
1001
ACAD
1000
MTEXTBEGIN
1070
    73
1070
     1
1070
    44
1040
1.0
1070
    74
1070
     0
1000
MTEXTEND
  0
POINT
  5
341
330
277
100
AcDbEntity
  8
Defpoints
  6
Continuous
 62
     0
100
AcDbPoint
 10
212.2834820938038
 20
239.7479251227745
 30
0.0
  0
POINT
  5
342
330
277
100
AcDbEntity
  8
Defpoints
  6
Continuous
 62
     0
100
AcDbPoint
 10
712.2834820938036
 20
239.7479251227744
 30
0.0
  0
POINT
  5
343
330
277
100
AcDbEntity
  8
Defpoints
  6
Continuous
 62
     0
100
AcDbPoint
 10
712.2834820938036
 20
129.7479251227745
 30
0.0
  0
ENDBLK
  5
279
330
277
100
AcDbEntity
  8
0
100
AcDbBlockEnd
  0
BLOCK
  5
346
330
345
100
AcDbEntity
  8
0
100
AcDbBlockBegin
  2
*D4
 70
     1
 10
0.0
 20
0.0
 30
0.0
  3
*D4
  1

  0
LINE
  5
409
330
345
100
AcDbEntity
  8
Bemaßungen(DIN)
  6
Continuous
 62
     7
370
    25
100
AcDbLine
 10
697.2834820940438
 20
397.7912221839967
 30
0.0
 11
697.2834820940438
 21
338.2662221839968
 31
0.0
  0
LINE
  5
40A
330
345
100
AcDbEntity
  8
Bemaßungen(DIN)
  6
Continuous
 62
     7
370
    25
100
AcDbLine
 10
787.2834820940438
 20
397.7912221839967
 30
0.0
 11
787.2834820940438
 21
338.2662221839968
 31
0.0
  0
LINE
  5
40B
330
345
100
AcDbEntity
  8
Bemaßungen(DIN)
  6
Continuous
 62
     7
370
    25
100
AcDbLine
 10
704.7834820940438
 20
347.7912221839968
 30
0.0
 11
779.7834820940438
 21
347.7912221839968
 31
0.0
  0
SOLID
  5
40C
330
345
100
AcDbEntity
  8
Bemaßungen(DIN)
  6
Continuous
 62
     7
100
AcDbTrace
 10
704.7834820940438
 20
349.0412221839968
 30
0.0
 11
704.7834820940438
 21
346.5412221839967
 31
0.0
 12
697.2834820940438
 22
347.7912221839968
 32
0.0
 13
697.2834820940438
 23
347.7912221839968
 33
0.0
  0
SOLID
  5
40D
330
345
100
AcDbEntity
  8
Bemaßungen(DIN)
  6
Continuous
 62
     7
100
AcDbTrace
 10
779.7834820940438
 20
349.0412221839968
 30
0.0
 11
779.7834820940438
 21
346.5412221839967
 31
0.0
 12
787.2834820940438
 22
347.7912221839968
 32
0.0
 13
787.2834820940438
 23
347.7912221839968
 33
0.0
  0
MTEXT
  5
40E
330
345
100
AcDbEntity
  8
Bemaßungen(DIN)
  6
Continuous
 62
     7
370
    25
100
AcDbMText
 10
734.7809241131435
 20
360.9132549261523
 30
0.0
 40
10.5
 41
0.0
 71
     1
 72
     1
  1
\A1;90
  7
Aktuell-BSI
 73
     1
 44
1.0
1001
ACAD
1000
MTEXTBEGIN
1070
    73
1070
     1
1070
    44
1040
1.0
1070
    74
1070
     0
1000
MTEXTEND
  0
POINT
  5
40F
330
345
100
AcDbEntity
  8
Defpoints
  6
Continuous
 62
     0
100
AcDbPoint
 10
697.2834820940438
 20
397.7912221839967
 30
0.0
  0
POINT
  5
410
330
345
100
AcDbEntity
  8
Defpoints
  6
Continuous
 62
     0
100
AcDbPoint
 10
787.2834820940438
 20
397.7912221839967
 30
0.0
  0
POINT
  5
411
330
345
100
AcDbEntity
  8
Defpoints
  6
Continuous
 62
     0
100
AcDbPoint
 10
787.2834820940438
 20
347.7912221839968
 30
0.0
  0
ENDBLK
  5
347
330
345
100
AcDbEntity
  8
0
100
AcDbBlockEnd
  0
BLOCK
  5
416
330
415
100
AcDbEntity
  8
0
100
AcDbBlockBegin
  2
*D5
 70
     1
 10
0.0
 20
0.0
 30
0.0
  3
*D5
  1

  0
LINE
  5
4D9
330
415
100
AcDbEntity
  8
Bemaßungen(DIN)
  6
Continuous
 62
     7
370
    25
100
AcDbLine
 10
212.2834820938038
 20
239.7479251227745
 30
0.0
 11
212.2834820938038
 21
120.2229251227745
 31
0.0
  0
LINE
  5
4DA
330
415
100
AcDbEntity
  8
Bemaßungen(DIN)
  6
Continuous
 62
     7
370
    25
100
AcDbLine
 10
152.2834820938039
 20
239.7479251227745
 30
0.0
 11
152.2834820938039
 21
120.2229251227745
 31
0.0
  0
LINE
  5
4DB
330
415
100
AcDbEntity
  8
Bemaßungen(DIN)
  6
Continuous
 62
     7
370
    25
100
AcDbLine
 10
204.7834820938038
 20
129.7479251227745
 30
0.0
 11
159.7834820938039
 21
129.7479251227745
 31
0.0
  0
SOLID
  5
4DC
330
415
100
AcDbEntity
  8
Bemaßungen(DIN)
  6
Continuous
 62
     7
100
AcDbTrace
 10
204.7834820938038
 20
130.9979251227745
 30
0.0
 11
204.7834820938038
 21
128.4979251227745
 31
0.0
 12
212.2834820938038
 22
129.7479251227745
 32
0.0
 13
212.2834820938038
 23
129.7479251227745
 33
0.0
  0
SOLID
  5
4DD
330
415
100
AcDbEntity
  8
Bemaßungen(DIN)
  6
Continuous
 62
     7
100
AcDbTrace
 10
159.7834820938039
 20
130.9979251227745
 30
0.0
 11
159.7834820938039
 21
128.4979251227745
 31
0.0
 12
152.2834820938039
 22
129.7479251227745
 32
0.0
 13
152.2834820938039
 23
129.7479251227745
 33
0.0
  0
MTEXT
  5
4DE
330
415
100
AcDbEntity
  8
Bemaßungen(DIN)
  6
Continuous
 62
     7
370
    25
100
AcDbMText
 10
174.7522747268189
 20
142.8699578649301
 30
0.0
 40
10.5
 41
0.0
 71
     1
 72
     1
  1
\A1;60
  7
Aktuell-BSI
 73
     1
 44
1.0
1001
ACAD
1000
MTEXTBEGIN
1070
    73
1070
     1
1070
    44
1040
1.0
1070
    74
1070
     0
1000
MTEXTEND
  0
POINT
  5
4DF
330
415
100
AcDbEntity
  8
Defpoints
  6
Continuous
 62
     0
100
AcDbPoint
 10
212.2834820938038
 20
239.7479251227745
 30
0.0
  0
POINT
  5
4E0
330
415
100
AcDbEntity
  8
Defpoints
  6
Continuous
 62
     0
100
AcDbPoint
 10
152.2834820938039
 20
239.7479251227745
 30
0.0
  0
POINT
  5
4E1
330
415
100
AcDbEntity
  8
Defpoints
  6
Continuous
 62
     0
100
AcDbPoint
 10
152.2834820938039
 20
129.7479251227745
 30
0.0
  0
ENDBLK
  5
417
330
415
100
AcDbEntity
  8
0
100
AcDbBlockEnd
  0
BLOCK
  5
4E4
330
4E3
100
AcDbEntity
  8
0
100
AcDbBlockBegin
  2
*D6
 70
     1
 10
0.0
 20
0.0
 30
0.0
  3
*D6
  1

  0
LINE
  5
57C
330
4E3
100
AcDbEntity
  8
Bemaßungen(DIN)
  6
Continuous
 62
     7
370
    25
100
AcDbLine
 10
761.0251518446054
 20
233.2479251227757
 30
0.0
 11
754.5299613162218
 21
229.4979251227764
 31
0.0
  0
LINE
  5
57D
330
4E3
100
AcDbEntity
  8
Bemaßungen(DIN)
  6
Continuous
 62
     7
370
    25
100
AcDbLine
 10
783.5418123430015
 20
246.247925122773
 30
0.0
 11
833.7200215056574
 21
275.2183276902788
 31
0.0
  0
LINE
  5
57E
330
4E3
100
AcDbEntity
  8
Bemaßungen(DIN)
  6
Continuous
 62
     7
370
    25
100
AcDbLine
 10
767.5203423729892
 20
236.997925122775
 30
0.0
 11
777.0466218146179
 21
242.4979251227736
 31
0.0
  0
SOLID
  5
57F
330
4E3
100
AcDbEntity
  8
Bemaßungen(DIN)
  6
Continuous
 62
     7
100
AcDbTrace
 10
760.4001518446056
 20
234.3304568775064
 30
0.0
 11
761.6501518446053
 21
232.1653933680451
 31
0.0
 12
767.5203423729892
 22
236.997925122775
 32
0.0
 13
767.5203423729892
 23
236.997925122775
 33
0.0
  0
SOLID
  5
580
330
4E3
100
AcDbEntity
  8
Bemaßungen(DIN)
  6
Continuous
 62
     7
100
AcDbTrace
 10
782.9168123430016
 20
247.3304568775036
 30
0.0
 11
784.1668123430014
 21
245.1653933680423
 31
0.0
 12
777.0466218146179
 22
242.4979251227736
 32
0.0
 13
777.0466218146179
 23
242.4979251227736
 33
0.0
  0
MTEXT
  5
581
102
{ACAD_XDICTIONARY
360
814
102
}
330
4E3
100
AcDbEntity
  8
Bemaßungen(DIN)
  6
Continuous
 62
     7
370
    25
100
AcDbMText
 10
803.6230229404074
 20
273.6720057003221
 30
0.0
 40
10.5
 41
0.0
 71
     1
 72
     1
  1
\A1;\U+220511
  7
Aktuell-BSI
 11
0.8660254037844904
 21
0.4999999999999102
 31
0.0
 73
     1
 44
1.0
1001
ACAD
1000
MTEXTBEGIN
1070
    73
1070
     1
1070
    44
1040
1.0
1070
    74
1070
     0
1000
MTEXTEND
  0
POINT
  5
582
330
4E3
100
AcDbEntity
  8
Defpoints
  6
Continuous
 62
     0
100
AcDbPoint
 10
777.0466218146179
 20
242.4979251227736
 30
0.0
  0
POINT
  5
583
330
4E3
100
AcDbEntity
  8
Defpoints
  6
Continuous
 62
     0
100
AcDbPoint
 10
767.5203423729892
 20
236.997925122775
 30
0.0
  0
ENDBLK
  5
4E5
330
4E3
100
AcDbEntity
  8
0
100
AcDbBlockEnd
  0
BLOCK
  5
586
330
585
100
AcDbEntity
  8
0
100
AcDbBlockBegin
  2
*D7
 70
     1
 10
0.0
 20
0.0
 30
0.0
  3
*D7
  1

  0
LINE
  5
649
330
585
100
AcDbEntity
  8
Bemaßungen(DIN)
  6
Continuous
 62
     7
370
    25
100
AcDbLine
 10
152.2834820938039
 20
214.7479251227744
 30
0.0
 11
75.93001523885475
 21
214.7479251227744
 31
0.0
  0
LINE
  5
64A
330
585
100
AcDbEntity
  8
Bemaßungen(DIN)
  6
Continuous
 62
     7
370
    25
100
AcDbLine
 10
152.2834820938039
 20
264.7479251227744
 30
0.0
 11
75.93001523885476
 21
264.7479251227745
 31
0.0
  0
LINE
  5
64B
330
585
100
AcDbEntity
  8
Bemaßungen(DIN)
  6
Continuous
 62
     7
370
    25
100
AcDbLine
 10
85.45501523885475
 20
222.2479251227745
 30
0.0
 11
85.45501523885477
 21
257.2479251227745
 31
0.0
  0
SOLID
  5
64C
330
585
100
AcDbEntity
  8
Bemaßungen(DIN)
  6
Continuous
 62
     7
100
AcDbTrace
 10
84.20501523885475
 20
222.2479251227745
 30
0.0
 11
86.70501523885475
 21
222.2479251227745
 31
0.0
 12
85.45501523885475
 22
214.7479251227744
 32
0.0
 13
85.45501523885475
 23
214.7479251227744
 33
0.0
  0
SOLID
  5
64D
330
585
100
AcDbEntity
  8
Bemaßungen(DIN)
  6
Continuous
 62
     7
100
AcDbTrace
 10
84.20501523885477
 20
257.2479251227745
 30
0.0
 11
86.70501523885477
 21
257.2479251227745
 31
0.0
 12
85.45501523885477
 22
264.7479251227745
 32
0.0
 13
85.45501523885477
 23
264.7479251227745
 33
0.0
  0
MTEXT
  5
64E
330
585
100
AcDbEntity
  8
Bemaßungen(DIN)
  6
Continuous
 62
     7
370
    25
100
AcDbMText
 10
72.3329824966992
 20
232.2453671418741
 30
0.0
 40
10.5
 41
0.0
 71
     1
 72
     1
  1
\A1;50
  7
Aktuell-BSI
 11
0.0000000000000001
 21
1.0
 31
0.0
 73
     1
 44
1.0
1001
ACAD
1000
MTEXTBEGIN
1070
    73
1070
     1
1070
    44
1040
1.0
1070
    74
1070
     0
1000
MTEXTEND
  0
POINT
  5
64F
330
585
100
AcDbEntity
  8
Defpoints
  6
Continuous
 62
     0
100
AcDbPoint
 10
152.2834820938039
 20
214.7479251227744
 30
0.0
  0
POINT
  5
650
330
585
100
AcDbEntity
  8
Defpoints
  6
Continuous
 62
     0
100
AcDbPoint
 10
152.2834820938039
 20
264.7479251227744
 30
0.0
  0
POINT
  5
651
330
585
100
AcDbEntity
  8
Defpoints
  6
Continuous
 62
     0
100
AcDbPoint
 10
85.45501523885477
 20
264.7479251227745
 30
0.0
  0
ENDBLK
  5
587
330
585
100
AcDbEntity
  8
0
100
AcDbBlockEnd
  0
BLOCK
  5
655
330
654
100
AcDbEntity
  8
0
100
AcDbBlockBegin
  2
*D8
 70
     1
 10
0.0
 20
0.0
 30
0.0
  3
*D8
  1

  0
LINE
  5
723
330
654
100
AcDbEntity
  8
Bemaßungen(DIN)
  6
Continuous
 62
     7
370
    25
100
AcDbLine
 10
313.5334820940439
 20
480.4912221839971
 30
0.0
 11
102.0430184981768
 21
480.4912221839972
 31
0.0
  0
LINE
  5
724
330
654
100
AcDbEntity
  8
Bemaßungen(DIN)
  6
Continuous
 62
     7
370
    25
100
AcDbLine
 10
137.2834820940441
 20
397.7912221839972
 30
0.0
 11
102.0430184981768
 21
397.7912221839972
 31
0.0
  0
LINE
  5
725
330
654
100
AcDbEntity
  8
Bemaßungen(DIN)
  6
Continuous
 62
     7
370
    25
100
AcDbLine
 10
111.5680184981768
 20
472.9912221839971
 30
0.0
 11
111.5680184981768
 21
405.2912221839973
 31
0.0
  0
SOLID
  5
726
330
654
100
AcDbEntity
  8
Bemaßungen(DIN)
  6
Continuous
 62
     7
100
AcDbTrace
 10
110.3180184981768
 20
472.9912221839971
 30
0.0
 11
112.8180184981768
 21
472.9912221839971
 31
0.0
 12
111.5680184981768
 22
480.4912221839972
 32
0.0
 13
111.5680184981768
 23
480.4912221839972
 33
0.0
  0
SOLID
  5
727
330
654
100
AcDbEntity
  8
Bemaßungen(DIN)
  6
Continuous
 62
     7
100
AcDbTrace
 10
110.3180184981768
 20
405.2912221839973
 30
0.0
 11
112.8180184981768
 21
405.2912221839973
 31
0.0
 12
111.5680184981768
 22
397.7912221839972
 32
0.0
 13
111.5680184981768
 23
397.7912221839972
 33
0.0
  0
MTEXT
  5
728
102
{ACAD_XDICTIONARY
360
816
102
}
330
654
100
AcDbEntity
  8
Bemaßungen(DIN)
  6
Continuous
 62
     7
370
    25
100
AcDbMText
 10
98.43882340950008
 20
423.5631185005046
 30
0.0
 40
10.5
 41
0.0
 71
     1
 72
     1
  1
\A1;83\U+00B12
  7
Aktuell-BSI
 11
0.0000000000000001
 21
1.0
 31
0.0
 73
     1
 44
1.0
1001
ACAD
1000
MTEXTBEGIN
1070
    73
1070
     1
1070
    44
1040
1.0
1070
    74
1070
     0
1000
MTEXTEND
  0
POINT
  5
729
330
654
100
AcDbEntity
  8
Defpoints
  6
Continuous
 62
     0
100
AcDbPoint
 10
313.5334820940439
 20
480.4912221839971
 30
0.0
  0
POINT
  5
72A
330
654
100
AcDbEntity
  8
Defpoints
  6
Continuous
 62
     0
100
AcDbPoint
 10
137.2834820940441
 20
397.7912221839972
 30
0.0
  0
POINT
  5
72B
330
654
100
AcDbEntity
  8
Defpoints
  6
Continuous
 62
     0
100
AcDbPoint
 10
111.5680184981768
 20
397.7912221839972
 30
0.0
  0
ENDBLK
  5
656
330
654
100
AcDbEntity
  8
0
100
AcDbBlockEnd
  0
BLOCK
  5
72E
330
72D
100
AcDbEntity
  8
0
100
AcDbBlockBegin
  2
*D9
 70
     1
 10
0.0
 20
0.0
 30
0.0
  3
*D9
  1

  0
LINE
  5
7F1
330
72D
100
AcDbEntity
  8
Bemaßungen(DIN)
  6
Continuous
 62
     7
370
    25
100
AcDbLine
 10
712.2834820938036
 20
239.7479251227744
 30
0.0
 11
712.2834820938036
 21
120.2229251227745
 31
0.0
  0
LINE
  5
7F2
330
72D
100
AcDbEntity
  8
Bemaßungen(DIN)
  6
Continuous
 62
     7
370
    25
100
AcDbLine
 10
787.2834820938036
 20
229.7479251227745
 30
0.0
 11
787.2834820938036
 21
120.2229251227745
 31
0.0
  0
LINE
  5
7F3
330
72D
100
AcDbEntity
  8
Bemaßungen(DIN)
  6
Continuous
 62
     7
370
    25
100
AcDbLine
 10
719.7834820938036
 20
129.7479251227745
 30
0.0
 11
779.7834820938036
 21
129.7479251227745
 31
0.0
  0
SOLID
  5
7F4
330
72D
100
AcDbEntity
  8
Bemaßungen(DIN)
  6
Continuous
 62
     7
100
AcDbTrace
 10
719.7834820938036
 20
130.9979251227745
 30
0.0
 11
719.7834820938036
 21
128.4979251227745
 31
0.0
 12
712.2834820938036
 22
129.7479251227745
 32
0.0
 13
712.2834820938036
 23
129.7479251227745
 33
0.0
  0
SOLID
  5
7F5
330
72D
100
AcDbEntity
  8
Bemaßungen(DIN)
  6
Continuous
 62
     7
100
AcDbTrace
 10
779.7834820938036
 20
130.9979251227745
 30
0.0
 11
779.7834820938036
 21
128.4979251227745
 31
0.0
 12
787.2834820938036
 22
129.7479251227745
 32
0.0
 13
787.2834820938036
 23
129.7479251227745
 33
0.0
  0
MTEXT
  5
7F6
330
72D
100
AcDbEntity
  8
Bemaßungen(DIN)
  6
Continuous
 62
     7
370
    25
100
AcDbMText
 10
742.2665994198609
 20
142.8269837858031
 30
0.0
 40
10.5
 41
0.0
 71
     1
 72
     1
  1
\A1;75
  7
Aktuell-BSI
 73
     1
 44
1.0
1001
ACAD
1000
MTEXTBEGIN
1070
    73
1070
     1
1070
    44
1040
1.0
1070
    74
1070
     0
1000
MTEXTEND
  0
POINT
  5
7F7
330
72D
100
AcDbEntity
  8
Defpoints
  6
Continuous
 62
     0
100
AcDbPoint
 10
712.2834820938036
 20
239.7479251227744
 30
0.0
  0
POINT
  5
7F8
330
72D
100
AcDbEntity
  8
Defpoints
  6
Continuous
 62
     0
100
AcDbPoint
 10
787.2834820938036
 20
229.7479251227745
 30
0.0
  0
POINT
  5
7F9
330
72D
100
AcDbEntity
  8
Defpoints
  6
Continuous
 62
     0
100
AcDbPoint
 10
787.2834820938036
 20
129.7479251227745
 30
0.0
  0
ENDBLK
  5
72F
330
72D
100
AcDbEntity
  8
0
100
AcDbBlockEnd
  0
ENDSEC
  0
SECTION
  2
ENTITIES
  0
LINE
  5
100
330
75
100
AcDbEntity
  8
Sichtbare tangentiale Kanten(DIN)
100
AcDbLine
 10
611.033482094044
 20
480.4912221839971
 30
0.0
 11
611.033482094044
 21
438.0912221839971
 31
0.0
  0
LINE
  5
101
330
75
100
AcDbEntity
  8
Sichtbare tangentiale Kanten(DIN)
100
AcDbLine
 10
313.5334820940439
 20
480.4912221839971
 30
0.0
 11
313.5334820940439
 21
438.0912221839971
 31
0.0
  0
ARC
  5
102
330
75
100
AcDbEntity
  8
Sichtbare Kanten(DIN)
100
AcDbCircle
 10
611.033482094044
 20
318.0912221839971
 30
0.0
 40
162.4
100
AcDbArc
 50
30.61298364831412
 51
90.0
  0
ARC
  5
103
330
75
100
AcDbEntity
  8
Sichtbare Kanten(DIN)
100
AcDbCircle
 10
611.033482094044
 20
318.0912221839971
 30
0.0
 40
120.0
100
AcDbArc
 50
43.56417946358024
 51
89.99999999999994
  0
LINE
  5
104
330
75
100
AcDbEntity
  8
Sichtbare Kanten(DIN)
100
AcDbLine
 10
313.5334820940439
 20
480.4912221839971
 30
0.0
 11
611.033482094044
 21
480.4912221839971
 31
0.0
  0
LINE
  5
105
330
75
100
AcDbEntity
  8
Sichtbare Kanten(DIN)
100
AcDbLine
 10
313.5334820940439
 20
438.0912221839971
 30
0.0
 11
611.033482094044
 21
438.0912221839971
 31
0.0
  0
ARC
  5
106
330
75
100
AcDbEntity
  8
Sichtbare Kanten(DIN)
100
AcDbCircle
 10
313.5334820940439
 20
318.0912221839971
 30
0.0
 40
162.4
100
AcDbArc
 50
90.0
 51
149.3870163516859
  0
ARC
  5
107
330
75
100
AcDbEntity
  8
Sichtbare Kanten(DIN)
100
AcDbCircle
 10
313.5334820940439
 20
318.0912221839971
 30
0.0
 40
119.9999999999999
100
AcDbArc
 50
90.0
 51
136.4358205364197
  0
LINE
  5
108
330
75
100
AcDbEntity
  8
Sichtbare Kanten(DIN)
100
AcDbLine
 10
227.283482094044
 20
397.7912221839971
 30
0.0
 11
227.283482094044
 21
400.7912221839971
 31
0.0
  0
LINE
  5
109
330
75
100
AcDbEntity
  8
Sichtbare Kanten(DIN)
100
AcDbLine
 10
212.283482094044
 20
400.7912221839971
 30
0.0
 11
227.283482094044
 21
400.7912221839971
 31
0.0
  0
LINE
  5
10A
330
75
100
AcDbEntity
  8
Sichtbare tangentiale Kanten(DIN)
100
AcDbLine
 10
212.283482094044
 20
397.7912221839972
 30
0.0
 11
212.283482094044
 21
400.7912221839971
 31
0.0
  0
LINE
  5
10B
330
75
100
AcDbEntity
  8
Sichtbare Kanten(DIN)
100
AcDbLine
 10
227.283482094044
 20
397.7912221839972
 30
0.0
 11
212.283482094044
 21
397.7912221839972
 31
0.0
  0
LINE
  5
10C
330
75
100
AcDbEntity
  8
Sichtbare Kanten(DIN)
100
AcDbLine
 10
212.283482094044
 20
400.7912221839971
 30
0.0
 11
152.2834820940441
 21
400.7912221839972
 31
0.0
  0
LINE
  5
10D
330
75
100
AcDbEntity
  8
Sichtbare tangentiale Kanten(DIN)
100
AcDbLine
 10
152.2834820940441
 20
397.7912221839972
 30
0.0
 11
152.2834820940441
 21
400.7912221839972
 31
0.0
  0
LINE
  5
10E
330
75
100
AcDbEntity
  8
Sichtbare Kanten(DIN)
100
AcDbLine
 10
152.2834820940441
 20
397.7912221839972
 30
0.0
 11
212.283482094044
 21
397.7912221839972
 31
0.0
  0
LINE
  5
10F
330
75
100
AcDbEntity
  8
Sichtbare Kanten(DIN)
100
AcDbLine
 10
137.2834820940441
 20
400.7912221839972
 30
0.0
 11
152.2834820940441
 21
400.7912221839972
 31
0.0
  0
LINE
  5
110
330
75
100
AcDbEntity
  8
Sichtbare Kanten(DIN)
100
AcDbLine
 10
137.2834820940442
 20
397.7912221839972
 30
0.0
 11
137.2834820940442
 21
400.7912221839972
 31
0.0
  0
LINE
  5
111
330
75
100
AcDbEntity
  8
Sichtbare Kanten(DIN)
100
AcDbLine
 10
152.2834820940441
 20
397.7912221839972
 30
0.0
 11
137.2834820940441
 21
397.7912221839972
 31
0.0
  0
LINE
  5
112
330
75
100
AcDbEntity
  8
Sichtbare Kanten(DIN)
100
AcDbLine
 10
787.2834820940438
 20
397.7912221839967
 30
0.0
 11
787.2834820940438
 21
400.7912221839966
 31
0.0
  0
LINE
  5
113
330
75
100
AcDbEntity
  8
Sichtbare Kanten(DIN)
100
AcDbLine
 10
772.2834820940438
 20
400.7912221839966
 30
0.0
 11
787.2834820940438
 21
400.7912221839966
 31
0.0
  0
LINE
  5
114
330
75
100
AcDbEntity
  8
Sichtbare tangentiale Kanten(DIN)
100
AcDbLine
 10
772.2834820940438
 20
397.7912221839967
 30
0.0
 11
772.2834820940438
 21
400.7912221839966
 31
0.0
  0
LINE
  5
115
330
75
100
AcDbEntity
  8
Sichtbare Kanten(DIN)
100
AcDbLine
 10
787.2834820940438
 20
397.7912221839967
 30
0.0
 11
772.2834820940438
 21
397.7912221839967
 31
0.0
  0
LINE
  5
116
330
75
100
AcDbEntity
  8
Sichtbare Kanten(DIN)
100
AcDbLine
 10
772.2834820940438
 20
400.7912221839966
 30
0.0
 11
712.2834820940438
 21
400.7912221839966
 31
0.0
  0
LINE
  5
117
330
75
100
AcDbEntity
  8
Sichtbare tangentiale Kanten(DIN)
100
AcDbLine
 10
712.2834820940438
 20
397.7912221839967
 30
0.0
 11
712.2834820940438
 21
400.7912221839966
 31
0.0
  0
LINE
  5
118
330
75
100
AcDbEntity
  8
Sichtbare Kanten(DIN)
100
AcDbLine
 10
712.2834820940438
 20
397.7912221839967
 30
0.0
 11
772.2834820940438
 21
397.7912221839967
 31
0.0
  0
LINE
  5
119
330
75
100
AcDbEntity
  8
Sichtbare Kanten(DIN)
100
AcDbLine
 10
697.2834820940438
 20
400.7912221839966
 30
0.0
 11
712.2834820940438
 21
400.7912221839966
 31
0.0
  0
LINE
  5
11A
330
75
100
AcDbEntity
  8
Sichtbare Kanten(DIN)
100
AcDbLine
 10
697.2834820940438
 20
397.7912221839967
 30
0.0
 11
697.2834820940438
 21
400.7912221839966
 31
0.0
  0
LINE
  5
11B
330
75
100
AcDbEntity
  8
Sichtbare Kanten(DIN)
100
AcDbLine
 10
712.2834820940438
 20
397.7912221839967
 30
0.0
 11
697.2834820940438
 21
397.7912221839967
 31
0.0
  0
POLYLINE
  5
11C
330
75
100
AcDbEntity
  8
Sichtbare Kanten(DIN)
100
AcDb2dPolyline
 66
     1
 10
0.0
 20
0.0
 30
0.0
 70
   128
  0
VERTEX
  5
11D
330
11C
100
AcDbEntity
  8
Sichtbare Kanten(DIN)
100
AcDbVertex
100
AcDb2dVertex
 10
173.7677045059132
 20
239.7479251227745
 30
0.0
  0
VERTEX
  5
11E
330
11C
100
AcDbEntity
  8
Sichtbare Kanten(DIN)
100
AcDbVertex
100
AcDb2dVertex
 10
173.8295598220753
 20
238.2648022673496
 30
0.0
  0
VERTEX
  5
120
330
11C
100
AcDbEntity
  8
Sichtbare Kanten(DIN)
100
AcDbVertex
100
AcDb2dVertex
 10
174.0192265701221
 20
236.7313382230171
 30
0.0
  0
VERTEX
  5
121
330
11C
100
AcDbEntity
  8
Sichtbare Kanten(DIN)
100
AcDbVertex
100
AcDb2dVertex
 10
174.3424840164112
 20
235.198087116278
 30
0.0
  0
VERTEX
  5
122
330
11C
100
AcDbEntity
  8
Sichtbare Kanten(DIN)
100
AcDbVertex
100
AcDb2dVertex
 10
174.7897000503467
 20
233.7122526965508
 30
0.0
  0
VERTEX
  5
123
330
11C
100
AcDbEntity
  8
Sichtbare Kanten(DIN)
100
AcDbVertex
100
AcDb2dVertex
 10
175.3328747939991
 20
232.3170367083915
 30
0.0
  0
VERTEX
  5
124
330
11C
100
AcDbEntity
  8
Sichtbare Kanten(DIN)
100
AcDbVertex
100
AcDb2dVertex
 10
175.9728856277393
 20
230.9919330678352
 30
0.0
  0
VERTEX
  5
125
330
11C
100
AcDbEntity
  8
Sichtbare Kanten(DIN)
100
AcDbVertex
100
AcDb2dVertex
 10
176.7421193313526
 20
229.6650782428154
 30
0.0
  0
VERTEX
  5
126
330
11C
100
AcDbEntity
  8
Sichtbare Kanten(DIN)
100
AcDbVertex
100
AcDb2dVertex
 10
177.626919288628
 20
228.3743170104393
 30
0.0
  0
VERTEX
  5
127
330
11C
100
AcDbEntity
  8
Sichtbare Kanten(DIN)
100
AcDbVertex
100
AcDb2dVertex
 10
178.6076398086476
 20
227.1560290656456
 30
0.0
  0
VERTEX
  5
128
330
11C
100
AcDbEntity
  8
Sichtbare Kanten(DIN)
100
AcDbVertex
100
AcDb2dVertex
 10
179.6491284561085
 20
226.0351517997154
 30
0.0
  0
VERTEX
  5
129
330
11C
100
AcDbEntity
  8
Sichtbare Kanten(DIN)
100
AcDbVertex
100
AcDb2dVertex
 10
180.7180066299366
 20
225.0301388106712
 30
0.0
  0
VERTEX
  5
12A
330
11C
100
AcDbEntity
  8
Sichtbare Kanten(DIN)
100
AcDbVertex
100
AcDb2dVertex
 10
181.8735928726124
 20
224.0797475180992
 30
0.0
  0
VERTEX
  5
12B
330
11C
100
AcDbEntity
  8
Sichtbare Kanten(DIN)
100
AcDbVertex
100
AcDb2dVertex
 10
183.1271977615284
 20
223.1749287448296
 30
0.0
  0
VERTEX
  5
12C
330
11C
100
AcDbEntity
  8
Sichtbare Kanten(DIN)
100
AcDbVertex
100
AcDb2dVertex
 10
184.4551511001514
 20
222.3393610320457
 30
0.0
  0
VERTEX
  5
12D
330
11C
100
AcDbEntity
  8
Sichtbare Kanten(DIN)
100
AcDbVertex
100
AcDb2dVertex
 10
185.8307118606495
 20
221.5915909610161
 30
0.0
  0
VERTEX
  5
12E
330
11C
100
AcDbEntity
  8
Sichtbare Kanten(DIN)
100
AcDbVertex
100
AcDb2dVertex
 10
187.2202344131397
 20
220.9386387668022
 30
0.0
  0
VERTEX
  5
12F
330
11C
100
AcDbEntity
  8
Sichtbare Kanten(DIN)
100
AcDbVertex
100
AcDb2dVertex
 10
188.5893101882862
 20
220.385912974871
 30
0.0
  0
VERTEX
  5
130
330
11C
100
AcDbEntity
  8
Sichtbare Kanten(DIN)
100
AcDbVertex
100
AcDb2dVertex
 10
189.9880833816456
 20
219.9089458785423
 30
0.0
  0
VERTEX
  5
131
330
11C
100
AcDbEntity
  8
Sichtbare Kanten(DIN)
100
AcDbVertex
100
AcDb2dVertex
 10
191.4608426284718
 20
219.4914892516502
 30
0.0
  0
VERTEX
  5
132
330
11C
100
AcDbEntity
  8
Sichtbare Kanten(DIN)
100
AcDbVertex
100
AcDb2dVertex
 10
192.9838986587452
 20
219.1439607940086
 30
0.0
  0
VERTEX
  5
133
330
11C
100
AcDbEntity
  8
Sichtbare Kanten(DIN)
100
AcDbVertex
100
AcDb2dVertex
 10
194.5335240554737
 20
218.8763335547813
 30
0.0
  0
VERTEX
  5
134
330
11C
100
AcDbEntity
  8
Sichtbare Kanten(DIN)
100
AcDbVertex
100
AcDb2dVertex
 10
196.0846371841358
 20
218.6907842955955
 30
0.0
  0
VERTEX
  5
135
330
11C
100
AcDbEntity
  8
Sichtbare Kanten(DIN)
100
AcDbVertex
100
AcDb2dVertex
 10
197.610992927544
 20
218.5828641257652
 30
0.0
  0
VERTEX
  5
136
330
11C
100
AcDbEntity
  8
Sichtbare Kanten(DIN)
100
AcDbVertex
100
AcDb2dVertex
 10
199.0863270950245
 20
218.5479262671837
 30
0.0
  0
SEQEND
  5
11F
330
11C
100
AcDbEntity
  8
Sichtbare Kanten(DIN)
  0
POLYLINE
  5
137
330
75
100
AcDbEntity
  8
Sichtbare Kanten(DIN)
100
AcDb2dPolyline
 66
     1
 10
0.0
 20
0.0
 30
0.0
 70
   128
  0
VERTEX
  5
138
330
137
100
AcDbEntity
  8
Sichtbare Kanten(DIN)
100
AcDbVertex
100
AcDb2dVertex
 10
199.0863270950245
 20
260.9479239783653
 30
0.0
  0
VERTEX
  5
139
330
137
100
AcDbEntity
  8
Sichtbare Kanten(DIN)
100
AcDbVertex
100
AcDb2dVertex
 10
197.610992927544
 20
260.9129861197837
 30
0.0
  0
VERTEX
  5
13B
330
137
100
AcDbEntity
  8
Sichtbare Kanten(DIN)
100
AcDbVertex
100
AcDb2dVertex
 10
196.0846371841358
 20
260.8050659499535
 30
0.0
  0
VERTEX
  5
13C
330
137
100
AcDbEntity
  8
Sichtbare Kanten(DIN)
100
AcDbVertex
100
AcDb2dVertex
 10
194.5335240554737
 20
260.6195166907676
 30
0.0
  0
VERTEX
  5
13D
330
137
100
AcDbEntity
  8
Sichtbare Kanten(DIN)
100
AcDbVertex
100
AcDb2dVertex
 10
192.9838986587452
 20
260.3518894515403
 30
0.0
  0
VERTEX
  5
13E
330
137
100
AcDbEntity
  8
Sichtbare Kanten(DIN)
100
AcDbVertex
100
AcDb2dVertex
 10
191.4608426284718
 20
260.0043609938987
 30
0.0
  0
VERTEX
  5
13F
330
137
100
AcDbEntity
  8
Sichtbare Kanten(DIN)
100
AcDbVertex
100
AcDb2dVertex
 10
189.9880833816456
 20
259.5869043670067
 30
0.0
  0
VERTEX
  5
140
330
137
100
AcDbEntity
  8
Sichtbare Kanten(DIN)
100
AcDbVertex
100
AcDb2dVertex
 10
188.5893101882862
 20
259.1099372706779
 30
0.0
  0
VERTEX
  5
141
330
137
100
AcDbEntity
  8
Sichtbare Kanten(DIN)
100
AcDbVertex
100
AcDb2dVertex
 10
187.2202344131397
 20
258.5572114787467
 30
0.0
  0
VERTEX
  5
142
330
137
100
AcDbEntity
  8
Sichtbare Kanten(DIN)
100
AcDbVertex
100
AcDb2dVertex
 10
185.8307118606495
 20
257.9042592845329
 30
0.0
  0
VERTEX
  5
143
330
137
100
AcDbEntity
  8
Sichtbare Kanten(DIN)
100
AcDbVertex
100
AcDb2dVertex
 10
184.4551511001514
 20
257.1564892135033
 30
0.0
  0
VERTEX
  5
144
330
137
100
AcDbEntity
  8
Sichtbare Kanten(DIN)
100
AcDbVertex
100
AcDb2dVertex
 10
183.1271977615284
 20
256.3209215007194
 30
0.0
  0
VERTEX
  5
145
330
137
100
AcDbEntity
  8
Sichtbare Kanten(DIN)
100
AcDbVertex
100
AcDb2dVertex
 10
181.8735928726124
 20
255.4161027274497
 30
0.0
  0
VERTEX
  5
146
330
137
100
AcDbEntity
  8
Sichtbare Kanten(DIN)
100
AcDbVertex
100
AcDb2dVertex
 10
180.7180066299366
 20
254.4657114348777
 30
0.0
  0
VERTEX
  5
147
330
137
100
AcDbEntity
  8
Sichtbare Kanten(DIN)
100
AcDbVertex
100
AcDb2dVertex
 10
179.6491284561085
 20
253.4606984458336
 30
0.0
  0
VERTEX
  5
148
330
137
100
AcDbEntity
  8
Sichtbare Kanten(DIN)
100
AcDbVertex
100
AcDb2dVertex
 10
178.6076398086476
 20
252.3398211799034
 30
0.0
  0
VERTEX
  5
149
330
137
100
AcDbEntity
  8
Sichtbare Kanten(DIN)
100
AcDbVertex
100
AcDb2dVertex
 10
177.626919288628
 20
251.1215332351097
 30
0.0
  0
VERTEX
  5
14A
330
137
100
AcDbEntity
  8
Sichtbare Kanten(DIN)
100
AcDbVertex
100
AcDb2dVertex
 10
176.7421193313526
 20
249.8307720027336
 30
0.0
  0
VERTEX
  5
14B
330
137
100
AcDbEntity
  8
Sichtbare Kanten(DIN)
100
AcDbVertex
100
AcDb2dVertex
 10
175.9728856277393
 20
248.5039171777138
 30
0.0
  0
VERTEX
  5
14C
330
137
100
AcDbEntity
  8
Sichtbare Kanten(DIN)
100
AcDbVertex
100
AcDb2dVertex
 10
175.3328747939991
 20
247.1788135371574
 30
0.0
  0
VERTEX
  5
14D
330
137
100
AcDbEntity
  8
Sichtbare Kanten(DIN)
100
AcDbVertex
100
AcDb2dVertex
 10
174.7897000503467
 20
245.7835975489982
 30
0.0
  0
VERTEX
  5
14E
330
137
100
AcDbEntity
  8
Sichtbare Kanten(DIN)
100
AcDbVertex
100
AcDb2dVertex
 10
174.3424840164112
 20
244.2977631292709
 30
0.0
  0
VERTEX
  5
14F
330
137
100
AcDbEntity
  8
Sichtbare Kanten(DIN)
100
AcDbVertex
100
AcDb2dVertex
 10
174.0192265701221
 20
242.7645120225319
 30
0.0
  0
VERTEX
  5
150
330
137
100
AcDbEntity
  8
Sichtbare Kanten(DIN)
100
AcDbVertex
100
AcDb2dVertex
 10
173.8295598220753
 20
241.2310479781994
 30
0.0
  0
VERTEX
  5
151
330
137
100
AcDbEntity
  8
Sichtbare Kanten(DIN)
100
AcDbVertex
100
AcDb2dVertex
 10
173.7677045059132
 20
239.7479251227745
 30
0.0
  0
SEQEND
  5
13A
330
137
100
AcDbEntity
  8
Sichtbare Kanten(DIN)
  0
POLYLINE
  5
152
330
75
100
AcDbEntity
  8
Sichtbare Kanten(DIN)
100
AcDb2dPolyline
 66
     1
 10
0.0
 20
0.0
 30
0.0
 70
   128
  0
VERTEX
  5
153
330
152
100
AcDbEntity
  8
Sichtbare Kanten(DIN)
100
AcDbVertex
100
AcDb2dVertex
 10
750.7992596816944
 20
239.7479251227745
 30
0.0
  0
VERTEX
  5
154
330
152
100
AcDbEntity
  8
Sichtbare Kanten(DIN)
100
AcDbVertex
100
AcDb2dVertex
 10
750.7374043655322
 20
241.2310479781994
 30
0.0
  0
VERTEX
  5
156
330
152
100
AcDbEntity
  8
Sichtbare Kanten(DIN)
100
AcDbVertex
100
AcDb2dVertex
 10
750.5477376174853
 20
242.7645120225319
 30
0.0
  0
VERTEX
  5
157
330
152
100
AcDbEntity
  8
Sichtbare Kanten(DIN)
100
AcDbVertex
100
AcDb2dVertex
 10
750.2244801711963
 20
244.2977631292709
 30
0.0
  0
VERTEX
  5
158
330
152
100
AcDbEntity
  8
Sichtbare Kanten(DIN)
100
AcDbVertex
100
AcDb2dVertex
 10
749.7772641372607
 20
245.7835975489982
 30
0.0
  0
VERTEX
  5
159
330
152
100
AcDbEntity
  8
Sichtbare Kanten(DIN)
100
AcDbVertex
100
AcDb2dVertex
 10
749.2340893936084
 20
247.1788135371574
 30
0.0
  0
VERTEX
  5
15A
330
152
100
AcDbEntity
  8
Sichtbare Kanten(DIN)
100
AcDbVertex
100
AcDb2dVertex
 10
748.5940785598682
 20
248.5039171777138
 30
0.0
  0
VERTEX
  5
15B
330
152
100
AcDbEntity
  8
Sichtbare Kanten(DIN)
100
AcDbVertex
100
AcDb2dVertex
 10
747.8248448562549
 20
249.8307720027336
 30
0.0
  0
VERTEX
  5
15C
330
152
100
AcDbEntity
  8
Sichtbare Kanten(DIN)
100
AcDbVertex
100
AcDb2dVertex
 10
746.9400448989794
 20
251.1215332351097
 30
0.0
  0
VERTEX
  5
15D
330
152
100
AcDbEntity
  8
Sichtbare Kanten(DIN)
100
AcDbVertex
100
AcDb2dVertex
 10
745.9593243789599
 20
252.3398211799034
 30
0.0
  0
VERTEX
  5
15E
330
152
100
AcDbEntity
  8
Sichtbare Kanten(DIN)
100
AcDbVertex
100
AcDb2dVertex
 10
744.917835731499
 20
253.4606984458336
 30
0.0
  0
VERTEX
  5
15F
330
152
100
AcDbEntity
  8
Sichtbare Kanten(DIN)
100
AcDbVertex
100
AcDb2dVertex
 10
743.8489575576709
 20
254.4657114348777
 30
0.0
  0
VERTEX
  5
160
330
152
100
AcDbEntity
  8
Sichtbare Kanten(DIN)
100
AcDbVertex
100
AcDb2dVertex
 10
742.6933713149951
 20
255.4161027274497
 30
0.0
  0
VERTEX
  5
161
330
152
100
AcDbEntity
  8
Sichtbare Kanten(DIN)
100
AcDbVertex
100
AcDb2dVertex
 10
741.4397664260791
 20
256.3209215007194
 30
0.0
  0
VERTEX
  5
162
330
152
100
AcDbEntity
  8
Sichtbare Kanten(DIN)
100
AcDbVertex
100
AcDb2dVertex
 10
740.1118130874561
 20
257.1564892135033
 30
0.0
  0
VERTEX
  5
163
330
152
100
AcDbEntity
  8
Sichtbare Kanten(DIN)
100
AcDbVertex
100
AcDb2dVertex
 10
738.736252326958
 20
257.9042592845329
 30
0.0
  0
VERTEX
  5
164
330
152
100
AcDbEntity
  8
Sichtbare Kanten(DIN)
100
AcDbVertex
100
AcDb2dVertex
 10
737.3467297744678
 20
258.5572114787467
 30
0.0
  0
VERTEX
  5
165
330
152
100
AcDbEntity
  8
Sichtbare Kanten(DIN)
100
AcDbVertex
100
AcDb2dVertex
 10
735.9776539993212
 20
259.1099372706779
 30
0.0
  0
VERTEX
  5
166
330
152
100
AcDbEntity
  8
Sichtbare Kanten(DIN)
100
AcDbVertex
100
AcDb2dVertex
 10
734.5788808059619
 20
259.5869043670067
 30
0.0
  0
VERTEX
  5
167
330
152
100
AcDbEntity
  8
Sichtbare Kanten(DIN)
100
AcDbVertex
100
AcDb2dVertex
 10
733.1061215591358
 20
260.0043609938987
 30
0.0
  0
VERTEX
  5
168
330
152
100
AcDbEntity
  8
Sichtbare Kanten(DIN)
100
AcDbVertex
100
AcDb2dVertex
 10
731.5830655288623
 20
260.3518894515403
 30
0.0
  0
VERTEX
  5
169
330
152
100
AcDbEntity
  8
Sichtbare Kanten(DIN)
100
AcDbVertex
100
AcDb2dVertex
 10
730.0334401321338
 20
260.6195166907676
 30
0.0
  0
VERTEX
  5
16A
330
152
100
AcDbEntity
  8
Sichtbare Kanten(DIN)
100
AcDbVertex
100
AcDb2dVertex
 10
728.4823270034717
 20
260.8050659499535
 30
0.0
  0
VERTEX
  5
16B
330
152
100
AcDbEntity
  8
Sichtbare Kanten(DIN)
100
AcDbVertex
100
AcDb2dVertex
 10
726.9559712600635
 20
260.9129861197837
 30
0.0
  0
VERTEX
  5
16C
330
152
100
AcDbEntity
  8
Sichtbare Kanten(DIN)
100
AcDbVertex
100
AcDb2dVertex
 10
725.480637092583
 20
260.9479239783653
 30
0.0
  0
SEQEND
  5
155
330
152
100
AcDbEntity
  8
Sichtbare Kanten(DIN)
  0
POLYLINE
  5
16D
330
75
100
AcDbEntity
  8
Sichtbare Kanten(DIN)
100
AcDb2dPolyline
 66
     1
 10
0.0
 20
0.0
 30
0.0
 70
   128
  0
VERTEX
  5
16E
330
16D
100
AcDbEntity
  8
Sichtbare Kanten(DIN)
100
AcDbVertex
100
AcDb2dVertex
 10
725.480637092583
 20
218.5479262671837
 30
0.0
  0
VERTEX
  5
16F
330
16D
100
AcDbEntity
  8
Sichtbare Kanten(DIN)
100
AcDbVertex
100
AcDb2dVertex
 10
726.9559712600635
 20
218.5828641257652
 30
0.0
  0
VERTEX
  5
171
330
16D
100
AcDbEntity
  8
Sichtbare Kanten(DIN)
100
AcDbVertex
100
AcDb2dVertex
 10
728.4823270034717
 20
218.6907842955955
 30
0.0
  0
VERTEX
  5
172
330
16D
100
AcDbEntity
  8
Sichtbare Kanten(DIN)
100
AcDbVertex
100
AcDb2dVertex
 10
730.0334401321338
 20
218.8763335547813
 30
0.0
  0
VERTEX
  5
173
330
16D
100
AcDbEntity
  8
Sichtbare Kanten(DIN)
100
AcDbVertex
100
AcDb2dVertex
 10
731.5830655288623
 20
219.1439607940086
 30
0.0
  0
VERTEX
  5
174
330
16D
100
AcDbEntity
  8
Sichtbare Kanten(DIN)
100
AcDbVertex
100
AcDb2dVertex
 10
733.1061215591358
 20
219.4914892516502
 30
0.0
  0
VERTEX
  5
175
330
16D
100
AcDbEntity
  8
Sichtbare Kanten(DIN)
100
AcDbVertex
100
AcDb2dVertex
 10
734.5788808059619
 20
219.9089458785423
 30
0.0
  0
VERTEX
  5
176
330
16D
100
AcDbEntity
  8
Sichtbare Kanten(DIN)
100
AcDbVertex
100
AcDb2dVertex
 10
735.9776539993212
 20
220.385912974871
 30
0.0
  0
VERTEX
  5
177
330
16D
100
AcDbEntity
  8
Sichtbare Kanten(DIN)
100
AcDbVertex
100
AcDb2dVertex
 10
737.3467297744678
 20
220.9386387668022
 30
0.0
  0
VERTEX
  5
178
330
16D
100
AcDbEntity
  8
Sichtbare Kanten(DIN)
100
AcDbVertex
100
AcDb2dVertex
 10
738.736252326958
 20
221.5915909610161
 30
0.0
  0
VERTEX
  5
179
330
16D
100
AcDbEntity
  8
Sichtbare Kanten(DIN)
100
AcDbVertex
100
AcDb2dVertex
 10
740.1118130874561
 20
222.3393610320457
 30
0.0
  0
VERTEX
  5
17A
330
16D
100
AcDbEntity
  8
Sichtbare Kanten(DIN)
100
AcDbVertex
100
AcDb2dVertex
 10
741.4397664260791
 20
223.1749287448296
 30
0.0
  0
VERTEX
  5
17B
330
16D
100
AcDbEntity
  8
Sichtbare Kanten(DIN)
100
AcDbVertex
100
AcDb2dVertex
 10
742.6933713149951
 20
224.0797475180992
 30
0.0
  0
VERTEX
  5
17C
330
16D
100
AcDbEntity
  8
Sichtbare Kanten(DIN)
100
AcDbVertex
100
AcDb2dVertex
 10
743.8489575576709
 20
225.0301388106712
 30
0.0
  0
VERTEX
  5
17D
330
16D
100
AcDbEntity
  8
Sichtbare Kanten(DIN)
100
AcDbVertex
100
AcDb2dVertex
 10
744.917835731499
 20
226.0351517997154
 30
0.0
  0
VERTEX
  5
17E
330
16D
100
AcDbEntity
  8
Sichtbare Kanten(DIN)
100
AcDbVertex
100
AcDb2dVertex
 10
745.9593243789599
 20
227.1560290656456
 30
0.0
  0
VERTEX
  5
17F
330
16D
100
AcDbEntity
  8
Sichtbare Kanten(DIN)
100
AcDbVertex
100
AcDb2dVertex
 10
746.9400448989794
 20
228.3743170104393
 30
0.0
  0
VERTEX
  5
180
330
16D
100
AcDbEntity
  8
Sichtbare Kanten(DIN)
100
AcDbVertex
100
AcDb2dVertex
 10
747.8248448562549
 20
229.6650782428154
 30
0.0
  0
VERTEX
  5
181
330
16D
100
AcDbEntity
  8
Sichtbare Kanten(DIN)
100
AcDbVertex
100
AcDb2dVertex
 10
748.5940785598682
 20
230.9919330678352
 30
0.0
  0
VERTEX
  5
182
330
16D
100
AcDbEntity
  8
Sichtbare Kanten(DIN)
100
AcDbVertex
100
AcDb2dVertex
 10
749.2340893936084
 20
232.3170367083915
 30
0.0
  0
VERTEX
  5
183
330
16D
100
AcDbEntity
  8
Sichtbare Kanten(DIN)
100
AcDbVertex
100
AcDb2dVertex
 10
749.7772641372607
 20
233.7122526965508
 30
0.0
  0
VERTEX
  5
184
330
16D
100
AcDbEntity
  8
Sichtbare Kanten(DIN)
100
AcDbVertex
100
AcDb2dVertex
 10
750.2244801711963
 20
235.198087116278
 30
0.0
  0
VERTEX
  5
185
330
16D
100
AcDbEntity
  8
Sichtbare Kanten(DIN)
100
AcDbVertex
100
AcDb2dVertex
 10
750.5477376174853
 20
236.7313382230171
 30
0.0
  0
VERTEX
  5
186
330
16D
100
AcDbEntity
  8
Sichtbare Kanten(DIN)
100
AcDbVertex
100
AcDb2dVertex
 10
750.7374043655322
 20
238.2648022673496
 30
0.0
  0
VERTEX
  5
187
330
16D
100
AcDbEntity
  8
Sichtbare Kanten(DIN)
100
AcDbVertex
100
AcDb2dVertex
 10
750.7992596816944
 20
239.7479251227745
 30
0.0
  0
SEQEND
  5
170
330
16D
100
AcDbEntity
  8
Sichtbare Kanten(DIN)
  0
POLYLINE
  5
188
330
75
100
AcDbEntity
  8
Verdeckte Kanten(DIN)
 48
24.66017913818359
100
AcDb2dPolyline
 66
     1
 10
0.0
 20
0.0
 30
0.0
 70
   128
  0
VERTEX
  5
189
330
188
100
AcDbEntity
  8
Verdeckte Kanten(DIN)
 48
24.66017913818359
100
AcDbVertex
100
AcDb2dVertex
 10
199.0863270950245
 20
218.5479262671837
 30
0.0
  0
VERTEX
  5
18A
330
188
100
AcDbEntity
  8
Verdeckte Kanten(DIN)
 48
24.66017913818359
100
AcDbVertex
100
AcDb2dVertex
 10
201.3427777481007
 20
218.6280301413902
 30
0.0
  0
VERTEX
  5
18C
330
188
100
AcDbEntity
  8
Verdeckte Kanten(DIN)
 48
24.66017913818359
100
AcDbVertex
100
AcDb2dVertex
 10
203.6861272048878
 20
218.8741854033836
 30
0.0
  0
VERTEX
  5
18D
330
188
100
AcDbEntity
  8
Verdeckte Kanten(DIN)
 48
24.66017913818359
100
AcDbVertex
100
AcDb2dVertex
 10
206.0333867263722
 20
219.2935875258812
 30
0.0
  0
VERTEX
  5
18E
330
188
100
AcDbEntity
  8
Verdeckte Kanten(DIN)
 48
24.66017913818359
100
AcDbVertex
100
AcDb2dVertex
 10
208.3057828140186
 20
219.8692742190727
 30
0.0
  0
VERTEX
  5
18F
330
188
100
AcDbEntity
  8
Verdeckte Kanten(DIN)
 48
24.66017913818359
100
AcDbVertex
100
AcDb2dVertex
 10
210.4328961563038
 20
220.5671528182396
 30
0.0
  0
VERTEX
  5
190
330
188
100
AcDbEntity
  8
Verdeckte Kanten(DIN)
 48
24.66017913818359
100
AcDbVertex
100
AcDb2dVertex
 10
212.5486607742237
 20
221.4322403273949
 30
0.0
  0
VERTEX
  5
191
330
188
100
AcDbEntity
  8
Verdeckte Kanten(DIN)
 48
24.66017913818359
100
AcDbVertex
100
AcDb2dVertex
 10
214.6714825820851
 20
222.4870899520286
 30
0.0
  0
VERTEX
  5
192
330
188
100
AcDbEntity
  8
Verdeckte Kanten(DIN)
 48
24.66017913818359
100
AcDbVertex
100
AcDb2dVertex
 10
216.7074246597218
 20
223.7110904059776
 30
0.0
  0
VERTEX
  5
193
330
188
100
AcDbEntity
  8
Verdeckte Kanten(DIN)
 48
24.66017913818359
100
AcDbVertex
100
AcDb2dVertex
 10
218.5791058731007
 20
225.0538268885978
 30
0.0
  0
VERTEX
  5
194
330
188
100
AcDbEntity
  8
Verdeckte Kanten(DIN)
 48
24.66017913818359
100
AcDbVertex
100
AcDb2dVertex
 10
220.2761120986866
 20
226.5072742305168
 30
0.0
  0
VERTEX
  5
195
330
188
100
AcDbEntity
  8
Verdeckte Kanten(DIN)
 48
24.66017913818359
100
AcDbVertex
100
AcDb2dVertex
 10
221.9095463943409
 20
228.1915393672355
 30
0.0
  0
VERTEX
  5
196
330
188
100
AcDbEntity
  8
Verdeckte Kanten(DIN)
 48
24.66017913818359
100
AcDbVertex
100
AcDb2dVertex
 10
223.3721776199268
 20
230.0587377152809
 30
0.0
  0
VERTEX
  5
197
330
188
100
AcDbEntity
  8
Verdeckte Kanten(DIN)
 48
24.66017913818359
100
AcDbVertex
100
AcDb2dVertex
 10
224.5758481216358
 20
232.0150736174949
 30
0.0
  0
VERTEX
  5
198
330
188
100
AcDbEntity
  8
Verdeckte Kanten(DIN)
 48
24.66017913818359
100
AcDbVertex
100
AcDb2dVertex
 10
225.5101819229054
 20
234.0607628426918
 30
0.0
  0
VERTEX
  5
199
330
188
100
AcDbEntity
  8
Verdeckte Kanten(DIN)
 48
24.66017913818359
100
AcDbVertex
100
AcDb2dVertex
 10
226.1958546829151
 20
236.3178011975654
 30
0.0
  0
VERTEX
  5
19A
330
188
100
AcDbEntity
  8
Verdeckte Kanten(DIN)
 48
24.66017913818359
100
AcDbVertex
100
AcDb2dVertex
 10
226.5390629959034
 20
238.6302492223152
 30
0.0
  0
VERTEX
  5
19B
330
188
100
AcDbEntity
  8
Verdeckte Kanten(DIN)
 48
24.66017913818359
100
AcDbVertex
100
AcDb2dVertex
 10
226.5390629959034
 20
240.8656010232338
 30
0.0
  0
VERTEX
  5
19C
330
188
100
AcDbEntity
  8
Verdeckte Kanten(DIN)
 48
24.66017913818359
100
AcDbVertex
100
AcDb2dVertex
 10
226.1958546829151
 20
243.1780490479835
 30
0.0
  0
VERTEX
  5
19D
330
188
100
AcDbEntity
  8
Verdeckte Kanten(DIN)
 48
24.66017913818359
100
AcDbVertex
100
AcDb2dVertex
 10
225.5101819229054
 20
245.4350874028572
 30
0.0
  0
VERTEX
  5
19E
330
188
100
AcDbEntity
  8
Verdeckte Kanten(DIN)
 48
24.66017913818359
100
AcDbVertex
100
AcDb2dVertex
 10
224.5758481216358
 20
247.480776628054
 30
0.0
  0
VERTEX
  5
19F
330
188
100
AcDbEntity
  8
Verdeckte Kanten(DIN)
 48
24.66017913818359
100
AcDbVertex
100
AcDb2dVertex
 10
223.3721776199268
 20
249.4371125302681
 30
0.0
  0
VERTEX
  5
1A0
330
188
100
AcDbEntity
  8
Verdeckte Kanten(DIN)
 48
24.66017913818359
100
AcDbVertex
100
AcDb2dVertex
 10
221.9095463943409
 20
251.3043108783134
 30
0.0
  0
VERTEX
  5
1A1
330
188
100
AcDbEntity
  8
Verdeckte Kanten(DIN)
 48
24.66017913818359
100
AcDbVertex
100
AcDb2dVertex
 10
220.2761120986866
 20
252.9885760150322
 30
0.0
  0
VERTEX
  5
1A2
330
188
100
AcDbEntity
  8
Verdeckte Kanten(DIN)
 48
24.66017913818359
100
AcDbVertex
100
AcDb2dVertex
 10
218.5791058731007
 20
254.4420233569511
 30
0.0
  0
VERTEX
  5
1A3
330
188
100
AcDbEntity
  8
Verdeckte Kanten(DIN)
 48
24.66017913818359
100
AcDbVertex
100
AcDb2dVertex
 10
216.7074246597218
 20
255.7847598395714
 30
0.0
  0
VERTEX
  5
1A4
330
188
100
AcDbEntity
  8
Verdeckte Kanten(DIN)
 48
24.66017913818359
100
AcDbVertex
100
AcDb2dVertex
 10
214.6714825820851
 20
257.0087602935203
 30
0.0
  0
VERTEX
  5
1A5
330
188
100
AcDbEntity
  8
Verdeckte Kanten(DIN)
 48
24.66017913818359
100
AcDbVertex
100
AcDb2dVertex
 10
212.5486607742237
 20
258.0636099181541
 30
0.0
  0
VERTEX
  5
1A6
330
188
100
AcDbEntity
  8
Verdeckte Kanten(DIN)
 48
24.66017913818359
100
AcDbVertex
100
AcDb2dVertex
 10
210.4328961563038
 20
258.9286974273094
 30
0.0
  0
VERTEX
  5
1A7
330
188
100
AcDbEntity
  8
Verdeckte Kanten(DIN)
 48
24.66017913818359
100
AcDbVertex
100
AcDb2dVertex
 10
208.3057828140186
 20
259.6265760264762
 30
0.0
  0
VERTEX
  5
1A8
330
188
100
AcDbEntity
  8
Verdeckte Kanten(DIN)
 48
24.66017913818359
100
AcDbVertex
100
AcDb2dVertex
 10
206.0333867263722
 20
260.2022627196678
 30
0.0
  0
VERTEX
  5
1A9
330
188
100
AcDbEntity
  8
Verdeckte Kanten(DIN)
 48
24.66017913818359
100
AcDbVertex
100
AcDb2dVertex
 10
203.6861272048878
 20
260.6216648421654
 30
0.0
  0
VERTEX
  5
1AA
330
188
100
AcDbEntity
  8
Verdeckte Kanten(DIN)
 48
24.66017913818359
100
AcDbVertex
100
AcDb2dVertex
 10
201.3427777481007
 20
260.8678201041588
 30
0.0
  0
VERTEX
  5
1AB
330
188
100
AcDbEntity
  8
Verdeckte Kanten(DIN)
 48
24.66017913818359
100
AcDbVertex
100
AcDb2dVertex
 10
199.0863270950245
 20
260.9479239783653
 30
0.0
  0
SEQEND
  5
18B
330
188
100
AcDbEntity
  8
Verdeckte Kanten(DIN)
 48
24.66017913818359
  0
POLYLINE
  5
1AC
330
75
100
AcDbEntity
  8
Verdeckte Kanten(DIN)
 48
24.28584671020508
100
AcDb2dPolyline
 66
     1
 10
0.0
 20
0.0
 30
0.0
 70
   128
  0
VERTEX
  5
1AD
330
1AC
100
AcDbEntity
  8
Verdeckte Kanten(DIN)
 48
24.28584671020508
100
AcDbVertex
100
AcDb2dVertex
 10
176.0966916274952
 20
239.7479251227745
 30
0.0
  0
VERTEX
  5
1AE
330
1AC
100
AcDbEntity
  8
Verdeckte Kanten(DIN)
 48
24.28584671020508
100
AcDbVertex
100
AcDb2dVertex
 10
176.2482304763721
 20
241.9672601125606
 30
0.0
  0
VERTEX
  5
1B0
330
1AC
100
AcDbEntity
  8
Verdeckte Kanten(DIN)
 48
24.28584671020508
100
AcDbVertex
100
AcDb2dVertex
 10
176.7172856521534
 20
244.2306882343658
 30
0.0
  0
VERTEX
  5
1B1
330
1AC
100
AcDbEntity
  8
Verdeckte Kanten(DIN)
 48
24.28584671020508
100
AcDbVertex
100
AcDb2dVertex
 10
177.4658246231006
 20
246.3516798816093
 30
0.0
  0
VERTEX
  5
1B2
330
1AC
100
AcDbEntity
  8
Verdeckte Kanten(DIN)
 48
24.28584671020508
100
AcDbVertex
100
AcDb2dVertex
 10
178.4577603530811
 20
248.3139714799293
 30
0.0
  0
VERTEX
  5
1B3
330
1AC
100
AcDbEntity
  8
Verdeckte Kanten(DIN)
 48
24.28584671020508
100
AcDbVertex
100
AcDb2dVertex
 10
179.7427983474659
 20
250.2284112773307
 30
0.0
  0
VERTEX
  5
1B4
330
1AC
100
AcDbEntity
  8
Verdeckte Kanten(DIN)
 48
24.28584671020508
100
AcDbVertex
100
AcDb2dVertex
 10
181.2416501235889
 20
251.9603517852195
 30
0.0
  0
VERTEX
  5
1B5
330
1AC
100
AcDbEntity
  8
Verdeckte Kanten(DIN)
 48
24.28584671020508
100
AcDbVertex
100
AcDb2dVertex
 10
182.842983741753
 20
253.4401408038505
 30
0.0
  0
VERTEX
  5
1B6
330
1AC
100
AcDbEntity
  8
Verdeckte Kanten(DIN)
 48
24.28584671020508
100
AcDbVertex
100
AcDb2dVertex
 10
184.6613354873585
 20
254.7943762145409
 30
0.0
  0
VERTEX
  5
1B7
330
1AC
100
AcDbEntity
  8
Verdeckte Kanten(DIN)
 48
24.28584671020508
100
AcDbVertex
100
AcDb2dVertex
 10
186.6541905593799
 20
255.9809115729698
 30
0.0
  0
VERTEX
  5
1B8
330
1AC
100
AcDbEntity
  8
Verdeckte Kanten(DIN)
 48
24.28584671020508
100
AcDbVertex
100
AcDb2dVertex
 10
188.7061162185596
 20
256.9449821315178
 30
0.0
  0
VERTEX
  5
1B9
330
1AC
100
AcDbEntity
  8
Verdeckte Kanten(DIN)
 48
24.28584671020508
100
AcDbVertex
100
AcDb2dVertex
 10
190.750526924126
 20
257.6882234416374
 30
0.0
  0
VERTEX
  5
1BA
330
1AC
100
AcDbEntity
  8
Verdeckte Kanten(DIN)
 48
24.28584671020508
100
AcDbVertex
100
AcDb2dVertex
 10
192.9480023574757
 20
258.2791581950554
 30
0.0
  0
VERTEX
  5
1BB
330
1AC
100
AcDbEntity
  8
Verdeckte Kanten(DIN)
 48
24.28584671020508
100
AcDbVertex
100
AcDb2dVertex
 10
195.2340741348194
 20
258.6887982688316
 30
0.0
  0
VERTEX
  5
1BC
330
1AC
100
AcDbEntity
  8
Verdeckte Kanten(DIN)
 48
24.28584671020508
100
AcDbVertex
100
AcDb2dVertex
 10
197.5109906387257
 20
258.9040914378533
 30
0.0
  0
VERTEX
  5
1BD
330
1AC
100
AcDbEntity
  8
Verdeckte Kanten(DIN)
 48
24.28584671020508
100
AcDbVertex
100
AcDb2dVertex
 10
199.6902699661182
 20
258.9414015612968
 30
0.0
  0
VERTEX
  5
1BE
330
1AC
100
AcDbEntity
  8
Verdeckte Kanten(DIN)
 48
24.28584671020508
100
AcDbVertex
100
AcDb2dVertex
 10
201.9279523086476
 20
258.8090017638573
 30
0.0
  0
VERTEX
  5
1BF
330
1AC
100
AcDbEntity
  8
Verdeckte Kanten(DIN)
 48
24.28584671020508
100
AcDbVertex
100
AcDb2dVertex
 10
204.223598976128
 20
258.4982708297141
 30
0.0
  0
VERTEX
  5
1C0
330
1AC
100
AcDbEntity
  8
Verdeckte Kanten(DIN)
 48
24.28584671020508
100
AcDbVertex
100
AcDb2dVertex
 10
206.4843220901417
 20
258.0086842379937
 30
0.0
  0
VERTEX
  5
1C1
330
1AC
100
AcDbEntity
  8
Verdeckte Kanten(DIN)
 48
24.28584671020508
100
AcDbVertex
100
AcDb2dVertex
 10
208.6232037734913
 20
257.3739007316001
 30
0.0
  0
VERTEX
  5
1C2
330
1AC
100
AcDbEntity
  8
Verdeckte Kanten(DIN)
 48
24.28584671020508
100
AcDbVertex
100
AcDb2dVertex
 10
210.6669659805226
 20
256.5923729739555
 30
0.0
  0
VERTEX
  5
1C3
330
1AC
100
AcDbEntity
  8
Verdeckte Kanten(DIN)
 48
24.28584671020508
100
AcDbVertex
100
AcDb2dVertex
 10
212.741608161919
 20
255.606780370272
 30
0.0
  0
VERTEX
  5
1C4
330
1AC
100
AcDbEntity
  8
Verdeckte Kanten(DIN)
 48
24.28584671020508
100
AcDbVertex
100
AcDb2dVertex
 10
214.7440381240772
 20
254.4353011451133
 30
0.0
  0
VERTEX
  5
1C5
330
1AC
100
AcDbEntity
  8
Verdeckte Kanten(DIN)
 48
24.28584671020508
100
AcDbVertex
100
AcDb2dVertex
 10
216.5818829727101
 20
253.129346688784
 30
0.0
  0
VERTEX
  5
1C6
330
1AC
100
AcDbEntity
  8
Verdeckte Kanten(DIN)
 48
24.28584671020508
100
AcDbVertex
100
AcDb2dVertex
 10
218.2341809463429
 20
251.7057386241325
 30
0.0
  0
VERTEX
  5
1C7
330
1AC
100
AcDbEntity
  8
Verdeckte Kanten(DIN)
 48
24.28584671020508
100
AcDbVertex
100
AcDb2dVertex
 10
219.8108525466846
 20
250.0418630442986
 30
0.0
  0
VERTEX
  5
1C8
330
1AC
100
AcDbEntity
  8
Verdeckte Kanten(DIN)
 48
24.28584671020508
100
AcDbVertex
100
AcDb2dVertex
 10
221.1933179092335
 20
248.195207437075
 30
0.0
  0
VERTEX
  5
1C9
330
1AC
100
AcDbEntity
  8
Verdeckte Kanten(DIN)
 48
24.28584671020508
100
AcDbVertex
100
AcDb2dVertex
 10
222.2897572708057
 20
246.2792942128547
 30
0.0
  0
VERTEX
  5
1CA
330
1AC
100
AcDbEntity
  8
Verdeckte Kanten(DIN)
 48
24.28584671020508
100
AcDbVertex
100
AcDb2dVertex
 10
223.1270451736378
 20
244.2077318034538
 30
0.0
  0
VERTEX
  5
1CB
330
1AC
100
AcDbEntity
  8
Verdeckte Kanten(DIN)
 48
24.28584671020508
100
AcDbVertex
100
AcDb2dVertex
 10
223.6652035903858
 20
241.9645020566353
 30
0.0
  0
VERTEX
  5
1CC
330
1AC
100
AcDbEntity
  8
Verdeckte Kanten(DIN)
 48
24.28584671020508
100
AcDbVertex
100
AcDb2dVertex
 10
223.8411755752491
 20
239.7479251227745
 30
0.0
  0
VERTEX
  5
1CD
330
1AC
100
AcDbEntity
  8
Verdeckte Kanten(DIN)
 48
24.28584671020508
100
AcDbVertex
100
AcDb2dVertex
 10
223.6652035903858
 20
237.5313481889137
 30
0.0
  0
VERTEX
  5
1CE
330
1AC
100
AcDbEntity
  8
Verdeckte Kanten(DIN)
 48
24.28584671020508
100
AcDbVertex
100
AcDb2dVertex
 10
223.1270451736378
 20
235.2881184420952
 30
0.0
  0
VERTEX
  5
1CF
330
1AC
100
AcDbEntity
  8
Verdeckte Kanten(DIN)
 48
24.28584671020508
100
AcDbVertex
100
AcDb2dVertex
 10
222.2897572708057
 20
233.2165560326942
 30
0.0
  0
VERTEX
  5
1D0
330
1AC
100
AcDbEntity
  8
Verdeckte Kanten(DIN)
 48
24.28584671020508
100
AcDbVertex
100
AcDb2dVertex
 10
221.1933179092335
 20
231.300642808474
 30
0.0
  0
VERTEX
  5
1D1
330
1AC
100
AcDbEntity
  8
Verdeckte Kanten(DIN)
 48
24.28584671020508
100
AcDbVertex
100
AcDb2dVertex
 10
219.8108525466846
 20
229.4539872012504
 30
0.0
  0
VERTEX
  5
1D2
330
1AC
100
AcDbEntity
  8
Verdeckte Kanten(DIN)
 48
24.28584671020508
100
AcDbVertex
100
AcDb2dVertex
 10
218.2341809463429
 20
227.7901116214164
 30
0.0
  0
VERTEX
  5
1D3
330
1AC
100
AcDbEntity
  8
Verdeckte Kanten(DIN)
 48
24.28584671020508
100
AcDbVertex
100
AcDb2dVertex
 10
216.5818829727101
 20
226.3665035567649
 30
0.0
  0
VERTEX
  5
1D4
330
1AC
100
AcDbEntity
  8
Verdeckte Kanten(DIN)
 48
24.28584671020508
100
AcDbVertex
100
AcDb2dVertex
 10
214.7440381240772
 20
225.0605491004356
 30
0.0
  0
VERTEX
  5
1D5
330
1AC
100
AcDbEntity
  8
Verdeckte Kanten(DIN)
 48
24.28584671020508
100
AcDbVertex
100
AcDb2dVertex
 10
212.741608161919
 20
223.8890698752769
 30
0.0
  0
VERTEX
  5
1D6
330
1AC
100
AcDbEntity
  8
Verdeckte Kanten(DIN)
 48
24.28584671020508
100
AcDbVertex
100
AcDb2dVertex
 10
210.6669659805226
 20
222.9034772715935
 30
0.0
  0
VERTEX
  5
1D7
330
1AC
100
AcDbEntity
  8
Verdeckte Kanten(DIN)
 48
24.28584671020508
100
AcDbVertex
100
AcDb2dVertex
 10
208.6232037734913
 20
222.1219495139488
 30
0.0
  0
VERTEX
  5
1D8
330
1AC
100
AcDbEntity
  8
Verdeckte Kanten(DIN)
 48
24.28584671020508
100
AcDbVertex
100
AcDb2dVertex
 10
206.4843220901417
 20
221.4871660075554
 30
0.0
  0
VERTEX
  5
1D9
330
1AC
100
AcDbEntity
  8
Verdeckte Kanten(DIN)
 48
24.28584671020508
100
AcDbVertex
100
AcDb2dVertex
 10
204.223598976128
 20
220.9975794158348
 30
0.0
  0
VERTEX
  5
1DA
330
1AC
100
AcDbEntity
  8
Verdeckte Kanten(DIN)
 48
24.28584671020508
100
AcDbVertex
100
AcDb2dVertex
 10
201.9279523086476
 20
220.6868484816917
 30
0.0
  0
VERTEX
  5
1DB
330
1AC
100
AcDbEntity
  8
Verdeckte Kanten(DIN)
 48
24.28584671020508
100
AcDbVertex
100
AcDb2dVertex
 10
199.6902699661182
 20
220.5544486842522
 30
0.0
  0
VERTEX
  5
1DC
330
1AC
100
AcDbEntity
  8
Verdeckte Kanten(DIN)
 48
24.28584671020508
100
AcDbVertex
100
AcDb2dVertex
 10
197.5109906387257
 20
220.5917588076958
 30
0.0
  0
VERTEX
  5
1DD
330
1AC
100
AcDbEntity
  8
Verdeckte Kanten(DIN)
 48
24.28584671020508
100
AcDbVertex
100
AcDb2dVertex
 10
195.2340741348194
 20
220.8070519767173
 30
0.0
  0
VERTEX
  5
1DE
330
1AC
100
AcDbEntity
  8
Verdeckte Kanten(DIN)
 48
24.28584671020508
100
AcDbVertex
100
AcDb2dVertex
 10
192.9480023574757
 20
221.2166920504936
 30
0.0
  0
VERTEX
  5
1DF
330
1AC
100
AcDbEntity
  8
Verdeckte Kanten(DIN)
 48
24.28584671020508
100
AcDbVertex
100
AcDb2dVertex
 10
190.750526924126
 20
221.8076268039116
 30
0.0
  0
VERTEX
  5
1E0
330
1AC
100
AcDbEntity
  8
Verdeckte Kanten(DIN)
 48
24.28584671020508
100
AcDbVertex
100
AcDb2dVertex
 10
188.7061162185596
 20
222.5508681140312
 30
0.0
  0
VERTEX
  5
1E1
330
1AC
100
AcDbEntity
  8
Verdeckte Kanten(DIN)
 48
24.28584671020508
100
AcDbVertex
100
AcDb2dVertex
 10
186.6541905593799
 20
223.5149386725792
 30
0.0
  0
VERTEX
  5
1E2
330
1AC
100
AcDbEntity
  8
Verdeckte Kanten(DIN)
 48
24.28584671020508
100
AcDbVertex
100
AcDb2dVertex
 10
184.6613354873585
 20
224.7014740310081
 30
0.0
  0
VERTEX
  5
1E3
330
1AC
100
AcDbEntity
  8
Verdeckte Kanten(DIN)
 48
24.28584671020508
100
AcDbVertex
100
AcDb2dVertex
 10
182.842983741753
 20
226.0557094416984
 30
0.0
  0
VERTEX
  5
1E4
330
1AC
100
AcDbEntity
  8
Verdeckte Kanten(DIN)
 48
24.28584671020508
100
AcDbVertex
100
AcDb2dVertex
 10
181.2416501235889
 20
227.5354984603294
 30
0.0
  0
VERTEX
  5
1E5
330
1AC
100
AcDbEntity
  8
Verdeckte Kanten(DIN)
 48
24.28584671020508
100
AcDbVertex
100
AcDb2dVertex
 10
179.7427983474659
 20
229.2674389682182
 30
0.0
  0
VERTEX
  5
1E6
330
1AC
100
AcDbEntity
  8
Verdeckte Kanten(DIN)
 48
24.28584671020508
100
AcDbVertex
100
AcDb2dVertex
 10
178.4577603530811
 20
231.1818787656196
 30
0.0
  0
VERTEX
  5
1E7
330
1AC
100
AcDbEntity
  8
Verdeckte Kanten(DIN)
 48
24.28584671020508
100
AcDbVertex
100
AcDb2dVertex
 10
177.4658246231006
 20
233.1441703639396
 30
0.0
  0
VERTEX
  5
1E8
330
1AC
100
AcDbEntity
  8
Verdeckte Kanten(DIN)
 48
24.28584671020508
100
AcDbVertex
100
AcDb2dVertex
 10
176.7172856521534
 20
235.2651620111831
 30
0.0
  0
VERTEX
  5
1E9
330
1AC
100
AcDbEntity
  8
Verdeckte Kanten(DIN)
 48
24.28584671020508
100
AcDbVertex
100
AcDb2dVertex
 10
176.2482304763721
 20
237.5285901329883
 30
0.0
  0
VERTEX
  5
1EA
330
1AC
100
AcDbEntity
  8
Verdeckte Kanten(DIN)
 48
24.28584671020508
100
AcDbVertex
100
AcDb2dVertex
 10
176.0966916274952
 20
239.7479251227745
 30
0.0
  0
SEQEND
  5
1AF
330
1AC
100
AcDbEntity
  8
Verdeckte Kanten(DIN)
 48
24.28584671020508
  0
POLYLINE
  5
1EB
330
75
100
AcDbEntity
  8
Verdeckte Kanten(DIN)
 48
24.28584671020508
100
AcDb2dPolyline
 66
     1
 10
0.0
 20
0.0
 30
0.0
 70
   128
  0
VERTEX
  5
1EC
330
1EB
100
AcDbEntity
  8
Verdeckte Kanten(DIN)
 48
24.28584671020508
100
AcDbVertex
100
AcDb2dVertex
 10
748.4702725601123
 20
239.7479251227745
 30
0.0
  0
VERTEX
  5
1ED
330
1EB
100
AcDbEntity
  8
Verdeckte Kanten(DIN)
 48
24.28584671020508
100
AcDbVertex
100
AcDb2dVertex
 10
748.3187337112354
 20
237.5285901329883
 30
0.0
  0
VERTEX
  5
1EF
330
1EB
100
AcDbEntity
  8
Verdeckte Kanten(DIN)
 48
24.28584671020508
100
AcDbVertex
100
AcDb2dVertex
 10
747.8496785354541
 20
235.2651620111831
 30
0.0
  0
VERTEX
  5
1F0
330
1EB
100
AcDbEntity
  8
Verdeckte Kanten(DIN)
 48
24.28584671020508
100
AcDbVertex
100
AcDb2dVertex
 10
747.1011395645068
 20
233.1441703639396
 30
0.0
  0
VERTEX
  5
1F1
330
1EB
100
AcDbEntity
  8
Verdeckte Kanten(DIN)
 48
24.28584671020508
100
AcDbVertex
100
AcDb2dVertex
 10
746.1092038345263
 20
231.1818787656196
 30
0.0
  0
VERTEX
  5
1F2
330
1EB
100
AcDbEntity
  8
Verdeckte Kanten(DIN)
 48
24.28584671020508
100
AcDbVertex
100
AcDb2dVertex
 10
744.8241658401416
 20
229.2674389682182
 30
0.0
  0
VERTEX
  5
1F3
330
1EB
100
AcDbEntity
  8
Verdeckte Kanten(DIN)
 48
24.28584671020508
100
AcDbVertex
100
AcDb2dVertex
 10
743.3253140640186
 20
227.5354984603294
 30
0.0
  0
VERTEX
  5
1F4
330
1EB
100
AcDbEntity
  8
Verdeckte Kanten(DIN)
 48
24.28584671020508
100
AcDbVertex
100
AcDb2dVertex
 10
741.7239804458545
 20
226.0557094416984
 30
0.0
  0
VERTEX
  5
1F5
330
1EB
100
AcDbEntity
  8
Verdeckte Kanten(DIN)
 48
24.28584671020508
100
AcDbVertex
100
AcDb2dVertex
 10
739.905628700249
 20
224.7014740310081
 30
0.0
  0
VERTEX
  5
1F6
330
1EB
100
AcDbEntity
  8
Verdeckte Kanten(DIN)
 48
24.28584671020508
100
AcDbVertex
100
AcDb2dVertex
 10
737.9127736282275
 20
223.5149386725792
 30
0.0
  0
VERTEX
  5
1F7
330
1EB
100
AcDbEntity
  8
Verdeckte Kanten(DIN)
 48
24.28584671020508
100
AcDbVertex
100
AcDb2dVertex
 10
735.8608479690478
 20
222.5508681140312
 30
0.0
  0
VERTEX
  5
1F8
330
1EB
100
AcDbEntity
  8
Verdeckte Kanten(DIN)
 48
24.28584671020508
100
AcDbVertex
100
AcDb2dVertex
 10
733.8164372634814
 20
221.8076268039116
 30
0.0
  0
VERTEX
  5
1F9
330
1EB
100
AcDbEntity
  8
Verdeckte Kanten(DIN)
 48
24.28584671020508
100
AcDbVertex
100
AcDb2dVertex
 10
731.6189618301319
 20
221.2166920504936
 30
0.0
  0
VERTEX
  5
1FA
330
1EB
100
AcDbEntity
  8
Verdeckte Kanten(DIN)
 48
24.28584671020508
100
AcDbVertex
100
AcDb2dVertex
 10
729.3328900527881
 20
220.8070519767173
 30
0.0
  0
VERTEX
  5
1FB
330
1EB
100
AcDbEntity
  8
Verdeckte Kanten(DIN)
 48
24.28584671020508
100
AcDbVertex
100
AcDb2dVertex
 10
727.0559735488818
 20
220.5917588076958
 30
0.0
  0
VERTEX
  5
1FC
330
1EB
100
AcDbEntity
  8
Verdeckte Kanten(DIN)
 48
24.28584671020508
100
AcDbVertex
100
AcDb2dVertex
 10
724.8766942214892
 20
220.5544486842522
 30
0.0
  0
VERTEX
  5
1FD
330
1EB
100
AcDbEntity
  8
Verdeckte Kanten(DIN)
 48
24.28584671020508
100
AcDbVertex
100
AcDb2dVertex
 10
722.6390118789599
 20
220.6868484816917
 30
0.0
  0
VERTEX
  5
1FE
330
1EB
100
AcDbEntity
  8
Verdeckte Kanten(DIN)
 48
24.28584671020508
100
AcDbVertex
100
AcDb2dVertex
 10
720.3433652114795
 20
220.9975794158348
 30
0.0
  0
VERTEX
  5
1FF
330
1EB
100
AcDbEntity
  8
Verdeckte Kanten(DIN)
 48
24.28584671020508
100
AcDbVertex
100
AcDb2dVertex
 10
718.0826420974658
 20
221.4871660075554
 30
0.0
  0
VERTEX
  5
200
330
1EB
100
AcDbEntity
  8
Verdeckte Kanten(DIN)
 48
24.28584671020508
100
AcDbVertex
100
AcDb2dVertex
 10
715.9437604141162
 20
222.1219495139488
 30
0.0
  0
VERTEX
  5
201
330
1EB
100
AcDbEntity
  8
Verdeckte Kanten(DIN)
 48
24.28584671020508
100
AcDbVertex
100
AcDb2dVertex
 10
713.8999982070849
 20
222.9034772715935
 30
0.0
  0
VERTEX
  5
202
330
1EB
100
AcDbEntity
  8
Verdeckte Kanten(DIN)
 48
24.28584671020508
100
AcDbVertex
100
AcDb2dVertex
 10
711.8253560256885
 20
223.8890698752769
 30
0.0
  0
VERTEX
  5
203
330
1EB
100
AcDbEntity
  8
Verdeckte Kanten(DIN)
 48
24.28584671020508
100
AcDbVertex
100
AcDb2dVertex
 10
709.8229260635303
 20
225.0605491004356
 30
0.0
  0
VERTEX
  5
204
330
1EB
100
AcDbEntity
  8
Verdeckte Kanten(DIN)
 48
24.28584671020508
100
AcDbVertex
100
AcDb2dVertex
 10
707.9850812148975
 20
226.3665035567649
 30
0.0
  0
VERTEX
  5
205
330
1EB
100
AcDbEntity
  8
Verdeckte Kanten(DIN)
 48
24.28584671020508
100
AcDbVertex
100
AcDb2dVertex
 10
706.3327832412646
 20
227.7901116214164
 30
0.0
  0
VERTEX
  5
206
330
1EB
100
AcDbEntity
  8
Verdeckte Kanten(DIN)
 48
24.28584671020508
100
AcDbVertex
100
AcDb2dVertex
 10
704.7561116409228
 20
229.4539872012504
 30
0.0
  0
VERTEX
  5
207
330
1EB
100
AcDbEntity
  8
Verdeckte Kanten(DIN)
 48
24.28584671020508
100
AcDbVertex
100
AcDb2dVertex
 10
703.373646278374
 20
231.300642808474
 30
0.0
  0
VERTEX
  5
208
330
1EB
100
AcDbEntity
  8
Verdeckte Kanten(DIN)
 48
24.28584671020508
100
AcDbVertex
100
AcDb2dVertex
 10
702.2772069168017
 20
233.2165560326942
 30
0.0
  0
VERTEX
  5
209
330
1EB
100
AcDbEntity
  8
Verdeckte Kanten(DIN)
 48
24.28584671020508
100
AcDbVertex
100
AcDb2dVertex
 10
701.4399190139697
 20
235.2881184420952
 30
0.0
  0
VERTEX
  5
20A
330
1EB
100
AcDbEntity
  8
Verdeckte Kanten(DIN)
 48
24.28584671020508
100
AcDbVertex
100
AcDb2dVertex
 10
700.9017605972217
 20
237.5313481889137
 30
0.0
  0
VERTEX
  5
20B
330
1EB
100
AcDbEntity
  8
Verdeckte Kanten(DIN)
 48
24.28584671020508
100
AcDbVertex
100
AcDb2dVertex
 10
700.7257886123584
 20
239.7479251227745
 30
0.0
  0
VERTEX
  5
20C
330
1EB
100
AcDbEntity
  8
Verdeckte Kanten(DIN)
 48
24.28584671020508
100
AcDbVertex
100
AcDb2dVertex
 10
700.9017605972217
 20
241.9645020566353
 30
0.0
  0
VERTEX
  5
20D
330
1EB
100
AcDbEntity
  8
Verdeckte Kanten(DIN)
 48
24.28584671020508
100
AcDbVertex
100
AcDb2dVertex
 10
701.4399190139697
 20
244.2077318034538
 30
0.0
  0
VERTEX
  5
20E
330
1EB
100
AcDbEntity
  8
Verdeckte Kanten(DIN)
 48
24.28584671020508
100
AcDbVertex
100
AcDb2dVertex
 10
702.2772069168017
 20
246.2792942128547
 30
0.0
  0
VERTEX
  5
20F
330
1EB
100
AcDbEntity
  8
Verdeckte Kanten(DIN)
 48
24.28584671020508
100
AcDbVertex
100
AcDb2dVertex
 10
703.373646278374
 20
248.195207437075
 30
0.0
  0
VERTEX
  5
210
330
1EB
100
AcDbEntity
  8
Verdeckte Kanten(DIN)
 48
24.28584671020508
100
AcDbVertex
100
AcDb2dVertex
 10
704.7561116409228
 20
250.0418630442986
 30
0.0
  0
VERTEX
  5
211
330
1EB
100
AcDbEntity
  8
Verdeckte Kanten(DIN)
 48
24.28584671020508
100
AcDbVertex
100
AcDb2dVertex
 10
706.3327832412646
 20
251.7057386241325
 30
0.0
  0
VERTEX
  5
212
330
1EB
100
AcDbEntity
  8
Verdeckte Kanten(DIN)
 48
24.28584671020508
100
AcDbVertex
100
AcDb2dVertex
 10
707.9850812148975
 20
253.129346688784
 30
0.0
  0
VERTEX
  5
213
330
1EB
100
AcDbEntity
  8
Verdeckte Kanten(DIN)
 48
24.28584671020508
100
AcDbVertex
100
AcDb2dVertex
 10
709.8229260635303
 20
254.4353011451133
 30
0.0
  0
VERTEX
  5
214
330
1EB
100
AcDbEntity
  8
Verdeckte Kanten(DIN)
 48
24.28584671020508
100
AcDbVertex
100
AcDb2dVertex
 10
711.8253560256885
 20
255.606780370272
 30
0.0
  0
VERTEX
  5
215
330
1EB
100
AcDbEntity
  8
Verdeckte Kanten(DIN)
 48
24.28584671020508
100
AcDbVertex
100
AcDb2dVertex
 10
713.8999982070849
 20
256.5923729739555
 30
0.0
  0
VERTEX
  5
216
330
1EB
100
AcDbEntity
  8
Verdeckte Kanten(DIN)
 48
24.28584671020508
100
AcDbVertex
100
AcDb2dVertex
 10
715.9437604141162
 20
257.3739007316001
 30
0.0
  0
VERTEX
  5
217
330
1EB
100
AcDbEntity
  8
Verdeckte Kanten(DIN)
 48
24.28584671020508
100
AcDbVertex
100
AcDb2dVertex
 10
718.0826420974658
 20
258.0086842379937
 30
0.0
  0
VERTEX
  5
218
330
1EB
100
AcDbEntity
  8
Verdeckte Kanten(DIN)
 48
24.28584671020508
100
AcDbVertex
100
AcDb2dVertex
 10
720.3433652114795
 20
258.4982708297141
 30
0.0
  0
VERTEX
  5
219
330
1EB
100
AcDbEntity
  8
Verdeckte Kanten(DIN)
 48
24.28584671020508
100
AcDbVertex
100
AcDb2dVertex
 10
722.6390118789599
 20
258.8090017638573
 30
0.0
  0
VERTEX
  5
21A
330
1EB
100
AcDbEntity
  8
Verdeckte Kanten(DIN)
 48
24.28584671020508
100
AcDbVertex
100
AcDb2dVertex
 10
724.8766942214892
 20
258.9414015612968
 30
0.0
  0
VERTEX
  5
21B
330
1EB
100
AcDbEntity
  8
Verdeckte Kanten(DIN)
 48
24.28584671020508
100
AcDbVertex
100
AcDb2dVertex
 10
727.0559735488818
 20
258.9040914378533
 30
0.0
  0
VERTEX
  5
21C
330
1EB
100
AcDbEntity
  8
Verdeckte Kanten(DIN)
 48
24.28584671020508
100
AcDbVertex
100
AcDb2dVertex
 10
729.3328900527881
 20
258.6887982688316
 30
0.0
  0
VERTEX
  5
21D
330
1EB
100
AcDbEntity
  8
Verdeckte Kanten(DIN)
 48
24.28584671020508
100
AcDbVertex
100
AcDb2dVertex
 10
731.6189618301319
 20
258.2791581950554
 30
0.0
  0
VERTEX
  5
21E
330
1EB
100
AcDbEntity
  8
Verdeckte Kanten(DIN)
 48
24.28584671020508
100
AcDbVertex
100
AcDb2dVertex
 10
733.8164372634814
 20
257.6882234416374
 30
0.0
  0
VERTEX
  5
21F
330
1EB
100
AcDbEntity
  8
Verdeckte Kanten(DIN)
 48
24.28584671020508
100
AcDbVertex
100
AcDb2dVertex
 10
735.8608479690478
 20
256.9449821315178
 30
0.0
  0
VERTEX
  5
220
330
1EB
100
AcDbEntity
  8
Verdeckte Kanten(DIN)
 48
24.28584671020508
100
AcDbVertex
100
AcDb2dVertex
 10
737.9127736282275
 20
255.9809115729698
 30
0.0
  0
VERTEX
  5
221
330
1EB
100
AcDbEntity
  8
Verdeckte Kanten(DIN)
 48
24.28584671020508
100
AcDbVertex
100
AcDb2dVertex
 10
739.905628700249
 20
254.7943762145409
 30
0.0
  0
VERTEX
  5
222
330
1EB
100
AcDbEntity
  8
Verdeckte Kanten(DIN)
 48
24.28584671020508
100
AcDbVertex
100
AcDb2dVertex
 10
741.7239804458545
 20
253.4401408038505
 30
0.0
  0
VERTEX
  5
223
330
1EB
100
AcDbEntity
  8
Verdeckte Kanten(DIN)
 48
24.28584671020508
100
AcDbVertex
100
AcDb2dVertex
 10
743.3253140640186
 20
251.9603517852195
 30
0.0
  0
VERTEX
  5
224
330
1EB
100
AcDbEntity
  8
Verdeckte Kanten(DIN)
 48
24.28584671020508
100
AcDbVertex
100
AcDb2dVertex
 10
744.8241658401416
 20
250.2284112773307
 30
0.0
  0
VERTEX
  5
225
330
1EB
100
AcDbEntity
  8
Verdeckte Kanten(DIN)
 48
24.28584671020508
100
AcDbVertex
100
AcDb2dVertex
 10
746.1092038345263
 20
248.3139714799293
 30
0.0
  0
VERTEX
  5
226
330
1EB
100
AcDbEntity
  8
Verdeckte Kanten(DIN)
 48
24.28584671020508
100
AcDbVertex
100
AcDb2dVertex
 10
747.1011395645068
 20
246.3516798816093
 30
0.0
  0
VERTEX
  5
227
330
1EB
100
AcDbEntity
  8
Verdeckte Kanten(DIN)
 48
24.28584671020508
100
AcDbVertex
100
AcDb2dVertex
 10
747.8496785354541
 20
244.2306882343658
 30
0.0
  0
VERTEX
  5
228
330
1EB
100
AcDbEntity
  8
Verdeckte Kanten(DIN)
 48
24.28584671020508
100
AcDbVertex
100
AcDb2dVertex
 10
748.3187337112354
 20
241.9672601125606
 30
0.0
  0
VERTEX
  5
229
330
1EB
100
AcDbEntity
  8
Verdeckte Kanten(DIN)
 48
24.28584671020508
100
AcDbVertex
100
AcDb2dVertex
 10
748.4702725601123
 20
239.7479251227745
 30
0.0
  0
SEQEND
  5
1EE
330
1EB
100
AcDbEntity
  8
Verdeckte Kanten(DIN)
 48
24.28584671020508
  0
POLYLINE
  5
22A
330
75
100
AcDbEntity
  8
Verdeckte Kanten(DIN)
 48
24.66017913818359
100
AcDb2dPolyline
 66
     1
 10
0.0
 20
0.0
 30
0.0
 70
   128
  0
VERTEX
  5
22B
330
22A
100
AcDbEntity
  8
Verdeckte Kanten(DIN)
 48
24.66017913818359
100
AcDbVertex
100
AcDb2dVertex
 10
725.480637092583
 20
260.9479239783653
 30
0.0
  0
VERTEX
  5
22C
330
22A
100
AcDbEntity
  8
Verdeckte Kanten(DIN)
 48
24.66017913818359
100
AcDbVertex
100
AcDb2dVertex
 10
723.2241864395068
 20
260.8678201041588
 30
0.0
  0
VERTEX
  5
22E
330
22A
100
AcDbEntity
  8
Verdeckte Kanten(DIN)
 48
24.66017913818359
100
AcDbVertex
100
AcDb2dVertex
 10
720.8808369827197
 20
260.6216648421654
 30
0.0
  0
VERTEX
  5
22F
330
22A
100
AcDbEntity
  8
Verdeckte Kanten(DIN)
 48
24.66017913818359
100
AcDbVertex
100
AcDb2dVertex
 10
718.5335774612354
 20
260.2022627196678
 30
0.0
  0
VERTEX
  5
230
330
22A
100
AcDbEntity
  8
Verdeckte Kanten(DIN)
 48
24.66017913818359
100
AcDbVertex
100
AcDb2dVertex
 10
716.2611813735889
 20
259.6265760264762
 30
0.0
  0
VERTEX
  5
231
330
22A
100
AcDbEntity
  8
Verdeckte Kanten(DIN)
 48
24.66017913818359
100
AcDbVertex
100
AcDb2dVertex
 10
714.1340680313037
 20
258.9286974273094
 30
0.0
  0
VERTEX
  5
232
330
22A
100
AcDbEntity
  8
Verdeckte Kanten(DIN)
 48
24.66017913818359
100
AcDbVertex
100
AcDb2dVertex
 10
712.0183034133837
 20
258.0636099181541
 30
0.0
  0
VERTEX
  5
233
330
22A
100
AcDbEntity
  8
Verdeckte Kanten(DIN)
 48
24.66017913818359
100
AcDbVertex
100
AcDb2dVertex
 10
709.8954816055225
 20
257.0087602935203
 30
0.0
  0
VERTEX
  5
234
330
22A
100
AcDbEntity
  8
Verdeckte Kanten(DIN)
 48
24.66017913818359
100
AcDbVertex
100
AcDb2dVertex
 10
707.8595395278857
 20
255.7847598395714
 30
0.0
  0
VERTEX
  5
235
330
22A
100
AcDbEntity
  8
Verdeckte Kanten(DIN)
 48
24.66017913818359
100
AcDbVertex
100
AcDb2dVertex
 10
705.9878583145068
 20
254.4420233569511
 30
0.0
  0
VERTEX
  5
236
330
22A
100
AcDbEntity
  8
Verdeckte Kanten(DIN)
 48
24.66017913818359
100
AcDbVertex
100
AcDb2dVertex
 10
704.2908520889209
 20
252.9885760150322
 30
0.0
  0
VERTEX
  5
237
330
22A
100
AcDbEntity
  8
Verdeckte Kanten(DIN)
 48
24.66017913818359
100
AcDbVertex
100
AcDb2dVertex
 10
702.6574177932666
 20
251.3043108783134
 30
0.0
  0
VERTEX
  5
238
330
22A
100
AcDbEntity
  8
Verdeckte Kanten(DIN)
 48
24.66017913818359
100
AcDbVertex
100
AcDb2dVertex
 10
701.1947865676806
 20
249.4371125302681
 30
0.0
  0
VERTEX
  5
239
330
22A
100
AcDbEntity
  8
Verdeckte Kanten(DIN)
 48
24.66017913818359
100
AcDbVertex
100
AcDb2dVertex
 10
699.9911160659717
 20
247.480776628054
 30
0.0
  0
VERTEX
  5
23A
330
22A
100
AcDbEntity
  8
Verdeckte Kanten(DIN)
 48
24.66017913818359
100
AcDbVertex
100
AcDb2dVertex
 10
699.0567822647022
 20
245.4350874028572
 30
0.0
  0
VERTEX
  5
23B
330
22A
100
AcDbEntity
  8
Verdeckte Kanten(DIN)
 48
24.66017913818359
100
AcDbVertex
100
AcDb2dVertex
 10
698.3711095046924
 20
243.1780490479835
 30
0.0
  0
VERTEX
  5
23C
330
22A
100
AcDbEntity
  8
Verdeckte Kanten(DIN)
 48
24.66017913818359
100
AcDbVertex
100
AcDb2dVertex
 10
698.0279011917041
 20
240.8656010232338
 30
0.0
  0
VERTEX
  5
23D
330
22A
100
AcDbEntity
  8
Verdeckte Kanten(DIN)
 48
24.66017913818359
100
AcDbVertex
100
AcDb2dVertex
 10
698.0279011917041
 20
238.6302492223152
 30
0.0
  0
VERTEX
  5
23E
330
22A
100
AcDbEntity
  8
Verdeckte Kanten(DIN)
 48
24.66017913818359
100
AcDbVertex
100
AcDb2dVertex
 10
698.3711095046924
 20
236.3178011975654
 30
0.0
  0
VERTEX
  5
23F
330
22A
100
AcDbEntity
  8
Verdeckte Kanten(DIN)
 48
24.66017913818359
100
AcDbVertex
100
AcDb2dVertex
 10
699.0567822647022
 20
234.0607628426918
 30
0.0
  0
VERTEX
  5
240
330
22A
100
AcDbEntity
  8
Verdeckte Kanten(DIN)
 48
24.66017913818359
100
AcDbVertex
100
AcDb2dVertex
 10
699.9911160659717
 20
232.0150736174949
 30
0.0
  0
VERTEX
  5
241
330
22A
100
AcDbEntity
  8
Verdeckte Kanten(DIN)
 48
24.66017913818359
100
AcDbVertex
100
AcDb2dVertex
 10
701.1947865676806
 20
230.0587377152809
 30
0.0
  0
VERTEX
  5
242
330
22A
100
AcDbEntity
  8
Verdeckte Kanten(DIN)
 48
24.66017913818359
100
AcDbVertex
100
AcDb2dVertex
 10
702.6574177932666
 20
228.1915393672355
 30
0.0
  0
VERTEX
  5
243
330
22A
100
AcDbEntity
  8
Verdeckte Kanten(DIN)
 48
24.66017913818359
100
AcDbVertex
100
AcDb2dVertex
 10
704.2908520889209
 20
226.5072742305168
 30
0.0
  0
VERTEX
  5
244
330
22A
100
AcDbEntity
  8
Verdeckte Kanten(DIN)
 48
24.66017913818359
100
AcDbVertex
100
AcDb2dVertex
 10
705.9878583145068
 20
225.0538268885978
 30
0.0
  0
VERTEX
  5
245
330
22A
100
AcDbEntity
  8
Verdeckte Kanten(DIN)
 48
24.66017913818359
100
AcDbVertex
100
AcDb2dVertex
 10
707.8595395278857
 20
223.7110904059776
 30
0.0
  0
VERTEX
  5
246
330
22A
100
AcDbEntity
  8
Verdeckte Kanten(DIN)
 48
24.66017913818359
100
AcDbVertex
100
AcDb2dVertex
 10
709.8954816055225
 20
222.4870899520286
 30
0.0
  0
VERTEX
  5
247
330
22A
100
AcDbEntity
  8
Verdeckte Kanten(DIN)
 48
24.66017913818359
100
AcDbVertex
100
AcDb2dVertex
 10
712.0183034133837
 20
221.4322403273949
 30
0.0
  0
VERTEX
  5
248
330
22A
100
AcDbEntity
  8
Verdeckte Kanten(DIN)
 48
24.66017913818359
100
AcDbVertex
100
AcDb2dVertex
 10
714.1340680313037
 20
220.5671528182396
 30
0.0
  0
VERTEX
  5
249
330
22A
100
AcDbEntity
  8
Verdeckte Kanten(DIN)
 48
24.66017913818359
100
AcDbVertex
100
AcDb2dVertex
 10
716.2611813735889
 20
219.8692742190727
 30
0.0
  0
VERTEX
  5
24A
330
22A
100
AcDbEntity
  8
Verdeckte Kanten(DIN)
 48
24.66017913818359
100
AcDbVertex
100
AcDb2dVertex
 10
718.5335774612354
 20
219.2935875258812
 30
0.0
  0
VERTEX
  5
24B
330
22A
100
AcDbEntity
  8
Verdeckte Kanten(DIN)
 48
24.66017913818359
100
AcDbVertex
100
AcDb2dVertex
 10
720.8808369827197
 20
218.8741854033836
 30
0.0
  0
VERTEX
  5
24C
330
22A
100
AcDbEntity
  8
Verdeckte Kanten(DIN)
 48
24.66017913818359
100
AcDbVertex
100
AcDb2dVertex
 10
723.2241864395068
 20
218.6280301413902
 30
0.0
  0
VERTEX
  5
24D
330
22A
100
AcDbEntity
  8
Verdeckte Kanten(DIN)
 48
24.66017913818359
100
AcDbVertex
100
AcDb2dVertex
 10
725.480637092583
 20
218.5479262671837
 30
0.0
  0
SEQEND
  5
22D
330
22A
100
AcDbEntity
  8
Verdeckte Kanten(DIN)
 48
24.66017913818359
  0
LINE
  5
24E
330
75
100
AcDbEntity
  8
Sichtbare tangentiale Kanten(DIN)
100
AcDbLine
 10
611.0334820938037
 20
260.9479251227918
 30
0.0
 11
611.0334820938037
 21
218.5479251227918
 31
0.0
  0
LINE
  5
24F
330
75
100
AcDbEntity
  8
Sichtbare tangentiale Kanten(DIN)
100
AcDbLine
 10
313.5334820938038
 20
260.9479251227918
 30
0.0
 11
313.5334820938038
 21
218.5479251227918
 31
0.0
  0
LINE
  5
250
330
75
100
AcDbEntity
  8
Sichtbare Kanten(DIN)
100
AcDbLine
 10
725.480631468526
 20
260.9479251227745
 30
0.0
 11
611.0334820938037
 21
260.9479251227918
 31
0.0
  0
LINE
  5
251
330
75
100
AcDbEntity
  8
Sichtbare Kanten(DIN)
100
AcDbLine
 10
611.0334820938038
 20
218.5479251227918
 30
0.0
 11
725.480631468526
 21
218.5479251227745
 31
0.0
  0
LINE
  5
252
330
75
100
AcDbEntity
  8
Sichtbare Kanten(DIN)
100
AcDbLine
 10
313.5334820938038
 20
260.9479251227918
 30
0.0
 11
611.0334820938037
 21
260.9479251227918
 31
0.0
  0
LINE
  5
253
330
75
100
AcDbEntity
  8
Sichtbare Kanten(DIN)
100
AcDbLine
 10
313.5334820938038
 20
218.5479251227918
 30
0.0
 11
611.0334820938037
 21
218.5479251227918
 31
0.0
  0
LINE
  5
254
330
75
100
AcDbEntity
  8
Sichtbare Kanten(DIN)
100
AcDbLine
 10
313.5334820938038
 20
260.9479251227918
 30
0.0
 11
199.0863327190815
 21
260.9479251227745
 31
0.0
  0
LINE
  5
255
330
75
100
AcDbEntity
  8
Sichtbare Kanten(DIN)
100
AcDbLine
 10
199.0863327190816
 20
218.5479251227745
 30
0.0
 11
313.5334820938038
 21
218.5479251227918
 31
0.0
  0
LINE
  5
256
330
75
100
AcDbEntity
  8
Verdeckte Kanten(DIN)
 48
26.89939308166504
100
AcDbLine
 10
725.4806314685261
 20
258.9479251227745
 30
0.0
 11
611.0334820938037
 21
258.9479251227918
 31
0.0
  0
LINE
  5
257
330
75
100
AcDbEntity
  8
Verdeckte Kanten(DIN)
 48
26.89939308166504
100
AcDbLine
 10
611.0334820938037
 20
220.5479251227918
 30
0.0
 11
725.4806314685261
 21
220.5479251227745
 31
0.0
  0
LINE
  5
258
330
75
100
AcDbEntity
  8
Verdeckte Kanten(DIN)
 48
25.25059700012207
100
AcDbLine
 10
313.5334820938038
 20
258.9479251227918
 30
0.0
 11
611.0334820938037
 21
258.9479251227918
 31
0.0
  0
LINE
  5
259
330
75
100
AcDbEntity
  8
Verdeckte Kanten(DIN)
 48
25.25059700012207
100
AcDbLine
 10
313.5334820938038
 20
220.5479251227918
 30
0.0
 11
611.0334820938037
 21
220.5479251227918
 31
0.0
  0
LINE
  5
25A
330
75
100
AcDbEntity
  8
Verdeckte Kanten(DIN)
 48
26.89939308166504
100
AcDbLine
 10
313.5334820938038
 20
258.9479251227918
 30
0.0
 11
199.0863327190815
 21
258.9479251227745
 31
0.0
  0
LINE
  5
25B
330
75
100
AcDbEntity
  8
Verdeckte Kanten(DIN)
 48
26.89939308166504
100
AcDbLine
 10
199.0863327190816
 20
220.5479251227745
 30
0.0
 11
313.5334820938038
 21
220.5479251227918
 31
0.0
  0
CIRCLE
  5
25C
330
75
100
AcDbEntity
  8
Verdeckte Kanten(DIN)
 48
27.86447334289551
100
AcDbCircle
 10
212.2834820938038
 20
239.7479251227744
 30
0.0
 40
5.500000000000001
  0
CIRCLE
  5
25D
330
75
100
AcDbEntity
  8
Sichtbare Kanten(DIN)
100
AcDbCircle
 10
152.2834820938039
 20
239.7479251227744
 30
0.0
 40
5.500000000000001
  0
LINE
  5
25E
330
75
100
AcDbEntity
  8
Sichtbare Kanten(DIN)
100
AcDbLine
 10
152.2834820938039
 20
264.7479251227744
 30
0.0
 11
212.2834820938038
 21
264.7479251227744
 31
0.0
  0
ARC
  5
25F
330
75
100
AcDbEntity
  8
Sichtbare Kanten(DIN)
100
AcDbCircle
 10
212.2834820938038
 20
249.7479251227744
 30
0.0
 40
15.00000000000004
100
AcDbArc
 50
48.3024533968377
 51
90.00000000000007
  0
ARC
  5
260
330
75
100
AcDbEntity
  8
Sichtbare Kanten(DIN)
100
AcDbCircle
 10
212.2834820938038
 20
229.7479251227745
 30
0.0
 40
15.0
100
AcDbArc
 50
269.9999999999998
 51
311.6975466031624
  0
LINE
  5
261
330
75
100
AcDbEntity
  8
Sichtbare Kanten(DIN)
100
AcDbLine
 10
212.2834820938038
 20
214.7479251227744
 30
0.0
 11
152.2834820938039
 21
214.7479251227744
 31
0.0
  0
ARC
  5
262
330
75
100
AcDbEntity
  8
Sichtbare Kanten(DIN)
100
AcDbCircle
 10
152.2834820938039
 20
229.7479251227744
 30
0.0
 40
14.99999999999999
100
AcDbArc
 50
180.0
 51
270.0000000000001
  0
LINE
  5
263
330
75
100
AcDbEntity
  8
Sichtbare Kanten(DIN)
100
AcDbLine
 10
137.283482093804
 20
229.7479251227745
 30
0.0
 11
137.283482093804
 21
249.7479251227745
 31
0.0
  0
ARC
  5
264
330
75
100
AcDbEntity
  8
Sichtbare Kanten(DIN)
100
AcDbCircle
 10
152.2834820938039
 20
249.7479251227745
 30
0.0
 40
15.00000000000001
100
AcDbArc
 50
90.0
 51
180.0
  0
ARC
  5
265
330
75
100
AcDbEntity
  8
Verdeckte Kanten(DIN)
 48
8.028547286987304
100
AcDbCircle
 10
212.2834820938039
 20
249.7479251227745
 30
0.0
 40
14.99999999999993
100
AcDbArc
 50
0.0
 51
48.30245339683792
  0
LINE
  5
266
330
75
100
AcDbEntity
  8
Verdeckte Kanten(DIN)
 48
12.69787693023681
100
AcDbLine
 10
227.2834820938038
 20
249.7479251227745
 30
0.0
 11
227.2834820938038
 21
229.7479251227745
 31
0.0
  0
ARC
  5
267
330
75
100
AcDbEntity
  8
Verdeckte Kanten(DIN)
 48
8.028547286987304
100
AcDbCircle
 10
212.2834820938038
 20
229.7479251227745
 30
0.0
 40
15.0
100
AcDbArc
 50
311.6975466031624
 51
0.0
  0
CIRCLE
  5
268
330
75
100
AcDbEntity
  8
Sichtbare Kanten(DIN)
100
AcDbCircle
 10
772.2834820938036
 20
239.7479251227744
 30
0.0
 40
5.5
  0
CIRCLE
  5
269
330
75
100
AcDbEntity
  8
Verdeckte Kanten(DIN)
 48
27.86447334289551
100
AcDbCircle
 10
712.2834820938036
 20
239.7479251227744
 30
0.0
 40
5.5
  0
LINE
  5
26A
330
75
100
AcDbEntity
  8
Sichtbare Kanten(DIN)
100
AcDbLine
 10
712.2834820938036
 20
264.7479251227744
 30
0.0
 11
772.2834820938036
 21
264.7479251227744
 31
0.0
  0
ARC
  5
26B
330
75
100
AcDbEntity
  8
Sichtbare Kanten(DIN)
100
AcDbCircle
 10
772.2834820938036
 20
249.7479251227745
 30
0.0
 40
14.99999999999998
100
AcDbArc
 50
0.0
 51
90.0
  0
LINE
  5
26C
330
75
100
AcDbEntity
  8
Sichtbare Kanten(DIN)
100
AcDbLine
 10
787.2834820938036
 20
249.7479251227745
 30
0.0
 11
787.2834820938036
 21
229.7479251227745
 31
0.0
  0
ARC
  5
26D
330
75
100
AcDbEntity
  8
Sichtbare Kanten(DIN)
100
AcDbCircle
 10
772.2834820938036
 20
229.7479251227745
 30
0.0
 40
15.0
100
AcDbArc
 50
270.0
 51
0.0
  0
LINE
  5
26E
330
75
100
AcDbEntity
  8
Sichtbare Kanten(DIN)
100
AcDbLine
 10
772.2834820938036
 20
214.7479251227744
 30
0.0
 11
712.2834820938036
 21
214.7479251227744
 31
0.0
  0
ARC
  5
26F
330
75
100
AcDbEntity
  8
Sichtbare Kanten(DIN)
100
AcDbCircle
 10
712.2834820938036
 20
229.7479251227745
 30
0.0
 40
15.0
100
AcDbArc
 50
228.3024533968374
 51
270.0
  0
ARC
  5
270
330
75
100
AcDbEntity
  8
Sichtbare Kanten(DIN)
100
AcDbCircle
 10
712.2834820938036
 20
249.7479251227745
 30
0.0
 40
15.00000000000002
100
AcDbArc
 50
90.0
 51
131.6975466031624
  0
ARC
  5
271
330
75
100
AcDbEntity
  8
Verdeckte Kanten(DIN)
 48
8.028547286987304
100
AcDbCircle
 10
712.2834820938036
 20
229.7479251227745
 30
0.0
 40
15.00000000000001
100
AcDbArc
 50
180.0
 51
228.3024533968374
  0
LINE
  5
272
330
75
100
AcDbEntity
  8
Verdeckte Kanten(DIN)
 48
12.69787693023681
100
AcDbLine
 10
697.2834820938036
 20
229.7479251227745
 30
0.0
 11
697.2834820938036
 21
249.7479251227745
 31
0.0
  0
ARC
  5
273
330
75
100
AcDbEntity
  8
Verdeckte Kanten(DIN)
 48
8.028547286987304
100
AcDbCircle
 10
712.2834820938036
 20
249.7479251227745
 30
0.0
 40
15.00000000000002
100
AcDbArc
 50
131.6975466031626
 51
180.0
  0
DIMENSION
  5
274
330
75
100
AcDbEntity
  8
Bemaßungen(DIN)
  6
Continuous
 62
     7
370
    25
100
AcDbDimension
  2
*D3
 10
712.2834820938036
 20
129.7479251227745
 30
0.0
 11
462.2834820938037
 21
129.7479251227745
 31
0.0
 70
   160
  1
<> / 750 / 1000
 42
499.9999999999998
  3
DIN - Andere
100
AcDbAlignedDimension
 13
212.2834820938038
 23
239.7479251227745
 33
0.0
 14
712.2834820938036
 24
239.7479251227744
 34
0.0
 50
180.0
100
AcDbRotatedDimension
1001
ACAD
1000
DSTYLE
1002
{
1070
   289
1070
     2
1070
   271
1070
     2
1070
   272
1070
     2
1070
    48
1040
0.0
1070
    47
1040
0.0
1002
}
  0
DIMENSION
  5
344
330
75
100
AcDbEntity
  8
Bemaßungen(DIN)
  6
Continuous
 62
     7
370
    25
100
AcDbDimension
  2
*D4
 10
787.2834820940438
 20
347.7912221839968
 30
0.0
 11
742.283482094044
 21
347.7912221839968
 31
0.0
 70
   160
  1
<>
 42
90.0
  3
DIN - Andere
100
AcDbAlignedDimension
 13
697.2834820940438
 23
397.7912221839967
 33
0.0
 14
787.2834820940438
 24
397.7912221839967
 34
0.0
 50
180.0
100
AcDbRotatedDimension
1001
ACAD
1000
DSTYLE
1002
{
1070
   289
1070
     2
1070
   271
1070
     2
1070
   272
1070
     2
1070
    48
1040
0.0
1070
    47
1040
0.0
1002
}
  0
LINE
  5
412
330
75
100
AcDbEntity
  8
Mittellinie(DIN)
  6
CHAIN
 48
23.99096870422363
100
AcDbLine
 10
144.7834820938039
 20
239.7479251227744
 30
0.0
 11
219.7834820938039
 21
239.7479251227744
 31
0.0
  0
LINE
  5
413
330
75
100
AcDbEntity
  8
Mittelpunktmarkierung(DIN)
  6
CHAIN
 48
9.630364418029785
100
AcDbLine
 10
152.2834820938039
 20
252.7479251227745
 30
0.0
 11
152.2834820938039
 21
226.7479251227745
 31
0.0
  0
DIMENSION
  5
414
330
75
100
AcDbEntity
  8
Bemaßungen(DIN)
  6
Continuous
 62
     7
370
    25
100
AcDbDimension
  2
*D5
 10
152.2834820938039
 20
129.7479251227745
 30
0.0
 11
182.2834820938039
 21
129.7479251227745
 31
0.0
 70
   160
  1
<>
 42
59.99999999999985
  3
DIN - Andere
100
AcDbAlignedDimension
 13
212.2834820938038
 23
239.7479251227745
 33
0.0
 14
152.2834820938039
 24
239.7479251227745
 34
0.0
 50
180.0
100
AcDbRotatedDimension
1001
ACAD
1000
DSTYLE
1002
{
1070
   289
1070
     2
1070
   271
1070
     2
1070
   272
1070
     2
1070
    48
1040
0.0
1070
    47
1040
0.0
1002
}
  0
DIMENSION
  5
4E2
330
75
100
AcDbEntity
  8
Bemaßungen(DIN)
  6
Continuous
 62
     7
370
    25
100
AcDbDimension
  2
*D6
 10
767.5203423729892
 20
236.997925122775
 30
0.0
 11
821.0596280277128
 21
267.9088461077423
 31
0.0
 70
   163
  1
<>
 42
10.99999999999932
  3
DIN - Andere
100
AcDbDiametricDimension
 15
777.0466218146179
 25
242.4979251227736
 35
0.0
 40
0.0
1001
ACAD
1000
DSTYLE
1002
{
1070
   289
1070
     2
1070
   271
1070
     2
1070
   272
1070
     2
1070
    48
1040
0.0
1070
    47
1040
0.0
1002
}
1001
ACAD_DSTYLE_DIMRADIAL_EXTENSION
1070
   387
1070
     1
1070
   388
1040
0.0
1070
   390
1040
0.0
  0
DIMENSION
  5
584
330
75
100
AcDbEntity
  8
Bemaßungen(DIN)
  6
Continuous
 62
     7
370
    25
100
AcDbDimension
  2
*D7
 10
85.45501523885477
 20
264.7479251227745
 30
0.0
 11
85.45501523885473
 21
239.7479251227745
 31
0.0
 70
   160
  1
<>
 42
50.00000000000003
  3
DIN - Andere
100
AcDbAlignedDimension
 13
152.2834820938039
 23
214.7479251227744
 33
0.0
 14
152.2834820938039
 24
264.7479251227744
 34
0.0
 50
90.0
100
AcDbRotatedDimension
1001
ACAD
1000
DSTYLE
1002
{
1070
   289
1070
     2
1070
   271
1070
     2
1070
   272
1070
     2
1070
    48
1040
0.0
1070
    47
1040
0.0
1002
}
  0
LINE
  5
652
330
75
100
AcDbEntity
  8
Mittellinie(DIN)
  6
CHAIN
 48
23.99096870422363
100
AcDbLine
 10
130.7449126683164
 20
239.7479251227745
 30
0.0
 11
794.7834820938038
 21
239.7479251227744
 31
0.0
  0
DIMENSION
  5
653
330
75
100
AcDbEntity
  8
Bemaßungen(DIN)
  6
Continuous
 62
     7
370
    25
100
AcDbDimension
  2
*D8
 10
111.5680184981768
 20
397.7912221839972
 30
0.0
 11
111.5680184981767
 21
439.1412221839971
 31
0.0
 70
   160
  1
<>
 42
82.69999999999994
  3
DIN - Andere
100
AcDbAlignedDimension
 13
313.5334820940439
 23
480.4912221839971
 33
0.0
 14
137.2834820940441
 24
397.7912221839972
 34
0.0
 50
270.0
100
AcDbRotatedDimension
1001
ACAD
1000
DSTYLE
1002
{
1070
   289
1070
     2
1070
   271
1070
     0
1070
   147
1040
0.8
1070
    72
1070
     0
1070
    71
1070
     1
1070
   272
1070
     2
1070
    48
1040
2.0
1070
    47
1040
2.0
1002
}
  0
DIMENSION
  5
72C
330
75
100
AcDbEntity
  8
Bemaßungen(DIN)
  6
Continuous
 62
     7
370
    25
100
AcDbDimension
  2
*D9
 10
787.2834820938036
 20
129.7479251227745
 30
0.0
 11
749.7834820938037
 21
129.7479251227745
 31
0.0
 70
   160
  1
<>
 42
75.0
  3
DIN - Andere
100
AcDbAlignedDimension
 13
712.2834820938036
 23
239.7479251227744
 33
0.0
 14
787.2834820938036
 24
229.7479251227745
 34
0.0
 50
180.0
100
AcDbRotatedDimension
1001
ACAD
1000
DSTYLE
1002
{
1070
   289
1070
     2
1070
   271
1070
     2
1070
   272
1070
     2
1070
    48
1040
0.0
1070
    47
1040
0.0
1002
}
  0
LINE
  5
7FA
330
75
100
AcDbEntity
  8
Mittellinie(DIN)
  6
CHAIN
 48
23.99096870422363
100
AcDbLine
 10
462.2834820940674
 20
506.2041010111348
 30
0.0
 11
462.2834820937795
 21
192.0720797617568
 31
0.0
  0
MTEXT
  5
7FB
330
75
100
AcDbEntity
  8
Symbole(DIN)
 62
     7
100
AcDbMText
 10
293.2005726754888
 20
571.6729629317073
 30
0.0
 40
15.0
 41
329.5769691467285
 71
     1
 72
     1
  1
{\fArial|b0|i0;\H15.0000;Haltegriff 500-750-1000mm Form A}
 73
     1
 44
1.0
1001
ACAD
1000
MTEXTBEGIN
1070
    73
1070
     1
1070
    44
1040
1.0
1070
    74
1070
     0
1000
MTEXTEND
  0
ENDSEC
  0
SECTION
  2
OBJECTS
  0
DICTIONARY
  5
C
330
0
100
AcDbDictionary
281
     1
  3
ACAD_COLOR
350
6B
  3
ACAD_GROUP
350
D
  3
ACAD_LAYOUT
350
6A
  3
ACAD_MATERIAL
350
10
  3
ACAD_MLEADERSTYLE
350
6E
  3
ACAD_MLINESTYLE
350
67
  3
ACAD_PLOTSETTINGS
350
69
  3
ACAD_PLOTSTYLENAME
350
E
  3
ACAD_SCALELIST
350
3A
  3
ACAD_TABLESTYLE
350
6C
  3
ACAD_VISUALSTYLE
350
29
  3
ACDB_RECOMPOSE_DATA
350
808
  3
AcDbVariableDictionary
350
7FC
  3
DWGPROPS
350
809
  0
DICTIONARY
  5
814
330
581
100
AcDbDictionary
280
     1
281
     1
  3
ACAD_MTEXT_RT
360
815
  0
DICTIONARY
  5
816
330
728
100
AcDbDictionary
280
     1
281
     1
  3
ACAD_MTEXT_RT
360
817
  0
DICTIONARY
  5
6B
102
{ACAD_REACTORS
330
C
102
}
330
C
100
AcDbDictionary
281
     1
  0
DICTIONARY
  5
D
102
{ACAD_REACTORS
330
C
102
}
330
C
100
AcDbDictionary
281
     1
  0
DICTIONARY
  5
6A
102
{ACAD_REACTORS
330
C
102
}
330
C
100
AcDbDictionary
281
     1
  3
Layout1
350
74
  3
Layout2
350
7C
  3
Model
350
78
  0
DICTIONARY
  5
10
102
{ACAD_REACTORS
330
C
102
}
330
C
100
AcDbDictionary
281
     1
  3
ByBlock
350
19
  3
ByLayer
350
11
  3
Global
350
21
  0
DICTIONARY
  5
6E
102
{ACAD_REACTORS
330
C
102
}
330
C
100
AcDbDictionary
281
     1
  3
Standard
350
6F
  0
DICTIONARY
  5
67
102
{ACAD_REACTORS
330
C
102
}
330
C
100
AcDbDictionary
281
     1
  3
Standard
350
68
  0
DICTIONARY
  5
69
102
{ACAD_REACTORS
330
C
102
}
330
C
100
AcDbDictionary
281
     1
  0
ACDBDICTIONARYWDFLT
  5
E
102
{ACAD_REACTORS
330
C
102
}
330
C
100
AcDbDictionary
281
     1
  3
Normal
350
F
100
AcDbDictionaryWithDefault
340
F
  0
DICTIONARY
  5
3A
102
{ACAD_REACTORS
330
C
102
}
330
C
100
AcDbDictionary
281
     1
  3
A0
350
3B
  3
A1
350
3C
  3
A2
350
3D
  3
A3
350
3E
  3
A4
350
3F
  3
A5
350
40
  3
A6
350
41
  3
A7
350
42
  3
A8
350
43
  3
A9
350
44
  3
B0
350
45
  3
B1
350
46
  3
B2
350
47
  3
B3
350
48
  3
B4
350
49
  3
B5
350
4A
  3
B6
350
4B
  3
B7
350
4C
  3
B8
350
4D
  3
B9
350
4E
  3
C0
350
4F
  3
C1
350
50
  3
C2
350
51
  3
C3
350
52
  3
C4
350
53
  3
C5
350
54
  3
C6
350
55
  3
C7
350
56
  3
C8
350
57
  3
C9
350
58
  3
D0
350
59
  3
D1
350
5A
  3
D2
350
5B
  0
DICTIONARY
  5
6C
102
{ACAD_REACTORS
330
C
102
}
330
C
100
AcDbDictionary
281
     1
  3
Standard
350
6D
  0
DICTIONARY
  5
29
102
{ACAD_REACTORS
330
C
102
}
330
C
100
AcDbDictionary
281
     1
  3
2dWireframe
350
2F
  3
3D Hidden
350
31
  3
3dWireframe
350
30
  3
Basic
350
2E
  3
Brighten
350
35
  3
ColorChange
350
39
  3
Conceptual
350
32
  3
Dim
350
34
  3
Facepattern
350
38
  3
Flat
350
2A
  3
FlatWithEdges
350
2B
  3
Gouraud
350
2C
  3
GouraudWithEdges
350
2D
  3
Linepattern
350
37
  3
Realistic
350
33
  3
Thicken
350
36
  0
XRECORD
  5
808
102
{ACAD_REACTORS
330
C
102
}
330
C
100
AcDbXrecord
280
     1
 90
        1
330
6D
  0
DICTIONARY
  5
7FC
102
{ACAD_REACTORS
330
C
102
}
330
C
100
AcDbDictionary
281
     1
  3
CANNOSCALE
350
800
  3
CMLEADERSTYLE
350
7FE
  3
CTABLESTYLE
350
7FD
  3
DIMASSOC
350
805
  3
HIDETEXT
350
804
  3
INDEXCTL
350
803
  3
LIGHTINGUNITS
350
801
  3
MSLTSCALE
350
7FF
  3
SORTENTS
350
802
  0
XRECORD
  5
809
102
{ACAD_REACTORS
330
C
102
}
330
C
100
AcDbXrecord
280
     1
  1
DWGPROPS COOKIE
  2

  3

  4
S.Rübsamen
  6

  7

  8

  9

300
Manager=
301
Firma=
302
Kategorie=
303
Bauteilnummer=Haltegriff 500-750-1000mm Form A ZSB
304
Bezeichnung=
305
Projekt=
306
Konstrukteur=S.Rübsamen
307
Ingenieur=
308
Bevollmächtigter=
309
Kostenstelle=
 40
0.0000213425925926
 41
2454426.306893264
 42
2454426.306893264
  1

 90
       35
300
Zulieferer=
300
Benutzerstatus=
300
Konstruktionsstatus=InBearbeitung
300
Kontrolliert von=
300
Konstruktion genehmigt von=
300
Fertigung genehmigt von=
300
Artikel-Nr. =
300
Gewicht=
300
Oberfläche=
300
Oberfläche_2=roh
300
Werkstoff=Edelstahl V2A
300
Zeichnungs_Nr.=
300
Benennung2=
300
Benennung3=
300
Werkstoff_DIN=1.4301 / ASTM 304
300
Oberfläche_3=
300
ZeichnungsNr Index=
300
Änderung_a=
300
Änderung_b=
300
Datum_a=
300
Datum_b=
300
Status_a=
300
Status_b=
300
Name_a=
300
Name_b=
  0
XRECORD
  5
815
102
{ACAD_REACTORS
330
814
102
}
330
814
100
AcDbXrecord
280
     1
 40
5014.0
  1
\A1;\U+220511
  0
XRECORD
  5
817
102
{ACAD_REACTORS
330
816
102
}
330
816
100
AcDbXrecord
280
     1
 40
6039.0
  1
\A1;83±2
  0
LAYOUT
  5
74
102
{ACAD_XDICTIONARY
360
80E
102
}
102
{ACAD_REACTORS
330
6A
102
}
330
6A
100
AcDbPlotSettings
  1

  2

  4

  6

 40
0.0
 41
0.0
 42
0.0
 43
0.0
 44
0.0
 45
0.0
 46
0.0
 47
0.0
 48
0.0
 49
0.0
140
0.0
141
0.0
142
1.0
143
1.0
 70
   688
 72
     0
 73
     0
 74
     5
  7

 75
    16
147
1.0
148
0.0
149
0.0
100
AcDbLayout
  1
Layout1
 70
     1
 71
     1
 10
0.0
 20
0.0
 11
12.0
 21
9.0
 12
0.0
 22
0.0
 32
0.0
 14
0.0
 24
0.0
 34
0.0
 15
0.0
 25
0.0
 35
0.0
146
0.0
 13
0.0
 23
0.0
 33
0.0
 16
1.0
 26
0.0
 36
0.0
 17
0.0
 27
1.0
 37
0.0
 76
     0
330
71
  0
LAYOUT
  5
7C
102
{ACAD_XDICTIONARY
360
812
102
}
102
{ACAD_REACTORS
330
6A
102
}
330
6A
100
AcDbPlotSettings
  1

  2

  4

  6

 40
0.0
 41
0.0
 42
0.0
 43
0.0
 44
0.0
 45
0.0
 46
0.0
 47
0.0
 48
0.0
 49
0.0
140
0.0
141
0.0
142
1.0
143
1.0
 70
   688
 72
     0
 73
     0
 74
     5
  7

 75
    16
147
1.0
148
0.0
149
0.0
100
AcDbLayout
  1
Layout2
 70
     1
 71
     2
 10
0.0
 20
0.0
 11
12.0
 21
9.0
 12
0.0
 22
0.0
 32
0.0
 14
0.0
 24
0.0
 34
0.0
 15
0.0
 25
0.0
 35
0.0
146
0.0
 13
0.0
 23
0.0
 33
0.0
 16
1.0
 26
0.0
 36
0.0
 17
0.0
 27
1.0
 37
0.0
 76
     0
330
79
  0
LAYOUT
  5
78
102
{ACAD_XDICTIONARY
360
810
102
}
102
{ACAD_REACTORS
330
6A
102
}
330
6A
100
AcDbPlotSettings
  1

  2

  4

  6

 40
0.0
 41
0.0
 42
0.0
 43
0.0
 44
0.0
 45
0.0
 46
0.0
 47
0.0
 48
0.0
 49
0.0
140
0.0
141
0.0
142
1.0
143
1.0
 70
  1712
 72
     0
 73
     0
 74
     0
  7

 75
     0
147
1.0
148
0.0
149
0.0
100
AcDbLayout
  1
Model
 70
     1
 71
     0
 10
0.0
 20
0.0
 11
12.0
 21
9.0
 12
0.0
 22
0.0
 32
0.0
 14
0.0
 24
0.0
 34
0.0
 15
0.0
 25
0.0
 35
0.0
146
0.0
 13
0.0
 23
0.0
 33
0.0
 16
1.0
 26
0.0
 36
0.0
 17
0.0
 27
1.0
 37
0.0
 76
     0
330
75
  0
MATERIAL
  5
19
102
{ACAD_XDICTIONARY
360
1A
102
}
102
{ACAD_REACTORS
330
10
102
}
330
10
100
AcDbMaterial
  1
ByBlock
 72
     0
 43
0.0208333333333333
 43
0.0
 43
0.0
 43
0.0
 43
0.0
 43
0.0208333333333333
 43
0.0
 43
0.0
 43
0.0
 43
0.0
 43
1.0
 43
0.0
 43
0.0
 43
0.0
 43
0.0
 43
1.0
 77
     0
 47
0.0208333333333333
 47
0.0
 47
0.0
 47
0.0
 47
0.0
 47
0.0208333333333333
 47
0.0
 47
0.0
 47
0.0
 47
0.0
 47
1.0
 47
0.0
 47
0.0
 47
0.0
 47
0.0
 47
1.0
171
     0
 49
0.0208333333333333
 49
0.0
 49
0.0
 49
0.0
 49
0.0
 49
0.0208333333333333
 49
0.0
 49
0.0
 49
0.0
 49
0.0
 49
1.0
 49
0.0
 49
0.0
 49
0.0
 49
0.0
 49
1.0
175
     0
142
0.0208333333333333
142
0.0
142
0.0
142
0.0
142
0.0
142
0.0208333333333333
142
0.0
142
0.0
142
0.0
142
0.0
142
1.0
142
0.0
142
0.0
142
0.0
142
0.0
142
1.0
179
     0
144
0.0208333333333333
144
0.0
144
0.0
144
0.0
144
0.0
144
0.0208333333333333
144
0.0
144
0.0
144
0.0
144
0.0
144
1.0
144
0.0
144
0.0
144
0.0
144
0.0
144
1.0
147
0.0208333333333333
147
0.0
147
0.0
147
0.0
147
0.0
147
0.0208333333333333
147
0.0
147
0.0
147
0.0
147
0.0
147
1.0
147
0.0
147
0.0
147
0.0
147
0.0
147
1.0
  0
MATERIAL
  5
11
102
{ACAD_XDICTIONARY
360
12
102
}
102
{ACAD_REACTORS
330
10
102
}
330
10
100
AcDbMaterial
  1
ByLayer
 72
     0
 43
0.0208333333333333
 43
0.0
 43
0.0
 43
0.0
 43
0.0
 43
0.0208333333333333
 43
0.0
 43
0.0
 43
0.0
 43
0.0
 43
1.0
 43
0.0
 43
0.0
 43
0.0
 43
0.0
 43
1.0
 77
     0
 47
0.0208333333333333
 47
0.0
 47
0.0
 47
0.0
 47
0.0
 47
0.0208333333333333
 47
0.0
 47
0.0
 47
0.0
 47
0.0
 47
1.0
 47
0.0
 47
0.0
 47
0.0
 47
0.0
 47
1.0
171
     0
 49
0.0208333333333333
 49
0.0
 49
0.0
 49
0.0
 49
0.0
 49
0.0208333333333333
 49
0.0
 49
0.0
 49
0.0
 49
0.0
 49
1.0
 49
0.0
 49
0.0
 49
0.0
 49
0.0
 49
1.0
175
     0
142
0.0208333333333333
142
0.0
142
0.0
142
0.0
142
0.0
142
0.0208333333333333
142
0.0
142
0.0
142
0.0
142
0.0
142
1.0
142
0.0
142
0.0
142
0.0
142
0.0
142
1.0
179
     0
144
0.0208333333333333
144
0.0
144
0.0
144
0.0
144
0.0
144
0.0208333333333333
144
0.0
144
0.0
144
0.0
144
0.0
144
1.0
144
0.0
144
0.0
144
0.0
144
0.0
144
1.0
147
0.0208333333333333
147
0.0
147
0.0
147
0.0
147
0.0
147
0.0208333333333333
147
0.0
147
0.0
147
0.0
147
0.0
147
1.0
147
0.0
147
0.0
147
0.0
147
0.0
147
1.0
  0
MATERIAL
  5
21
102
{ACAD_XDICTIONARY
360
22
102
}
102
{ACAD_REACTORS
330
10
102
}
330
10
100
AcDbMaterial
  1
Global
 72
     0
 43
0.0208333333333333
 43
0.0
 43
0.0
 43
0.0
 43
0.0
 43
0.0208333333333333
 43
0.0
 43
0.0
 43
0.0
 43
0.0
 43
1.0
 43
0.0
 43
0.0
 43
0.0
 43
0.0
 43
1.0
 77
     0
 47
0.0208333333333333
 47
0.0
 47
0.0
 47
0.0
 47
0.0
 47
0.0208333333333333
 47
0.0
 47
0.0
 47
0.0
 47
0.0
 47
1.0
 47
0.0
 47
0.0
 47
0.0
 47
0.0
 47
1.0
171
     0
 49
0.0208333333333333
 49
0.0
 49
0.0
 49
0.0
 49
0.0
 49
0.0208333333333333
 49
0.0
 49
0.0
 49
0.0
 49
0.0
 49
1.0
 49
0.0
 49
0.0
 49
0.0
 49
0.0
 49
1.0
175
     0
142
0.0208333333333333
142
0.0
142
0.0
142
0.0
142
0.0
142
0.0208333333333333
142
0.0
142
0.0
142
0.0
142
0.0
142
1.0
142
0.0
142
0.0
142
0.0
142
0.0
142
1.0
179
     0
144
0.0208333333333333
144
0.0
144
0.0
144
0.0
144
0.0
144
0.0208333333333333
144
0.0
144
0.0
144
0.0
144
0.0
144
1.0
144
0.0
144
0.0
144
0.0
144
0.0
144
1.0
147
0.0208333333333333
147
0.0
147
0.0
147
0.0
147
0.0
147
0.0208333333333333
147
0.0
147
0.0
147
0.0
147
0.0
147
1.0
147
0.0
147
0.0
147
0.0
147
0.0
147
1.0
  0
MLEADERSTYLE
  5
6F
102
{ACAD_REACTORS
330
6E
102
}
330
6E
100
AcDbMLeaderStyle
170
     2
171
     1
172
     0
 90
        2
 40
0.0
 41
0.0
173
     1
 91
-1056964608
340
63
 92
       -2
290
     1
 42
0.09
291
     1
 43
0.36
  3
Standard
 44
0.18
300

342
5D
174
     1
178
     6
175
     1
176
     0
 93
-1056964608
 45
0.18
292
     0
297
     0
 46
0.18
 94
-1056964608
 47
1.0
 49
1.0
140
1.0
293
     1
141
0.0
294
     1
177
     0
142
1.0
295
     0
296
     0
143
0.125
1001
ACAD_MLEADERVER
1070
     2
  0
MLINESTYLE
  5
68
102
{ACAD_REACTORS
330
67
102
}
330
67
100
AcDbMlineStyle
  2
STANDARD
 70
     0
  3

 62
   256
 51
90.0
 52
90.0
 71
     2
 49
0.5
 62
   256
  6
BYLAYER
 49
-0.5
 62
   256
  6
BYLAYER
  0
ACDBPLACEHOLDER
  5
F
102
{ACAD_REACTORS
330
E
102
}
330
E
  0
SCALE
  5
3B
102
{ACAD_REACTORS
330
3A
102
}
330
3A
100
AcDbScale
 70
     0
300
1:1
140
1.0
141
1.0
290
     1
  0
SCALE
  5
3C
102
{ACAD_REACTORS
330
3A
102
}
330
3A
100
AcDbScale
 70
     0
300
1:2
140
1.0
141
2.0
290
     0
  0
SCALE
  5
3D
102
{ACAD_REACTORS
330
3A
102
}
330
3A
100
AcDbScale
 70
     0
300
1:4
140
1.0
141
4.0
290
     0
  0
SCALE
  5
3E
102
{ACAD_REACTORS
330
3A
102
}
330
3A
100
AcDbScale
 70
     0
300
1:5
140
1.0
141
5.0
290
     0
  0
SCALE
  5
3F
102
{ACAD_REACTORS
330
3A
102
}
330
3A
100
AcDbScale
 70
     0
300
1:8
140
1.0
141
8.0
290
     0
  0
SCALE
  5
40
102
{ACAD_REACTORS
330
3A
102
}
330
3A
100
AcDbScale
 70
     0
300
1:10
140
1.0
141
10.0
290
     0
  0
SCALE
  5
41
102
{ACAD_REACTORS
330
3A
102
}
330
3A
100
AcDbScale
 70
     0
300
1:16
140
1.0
141
16.0
290
     0
  0
SCALE
  5
42
102
{ACAD_REACTORS
330
3A
102
}
330
3A
100
AcDbScale
 70
     0
300
1:20
140
1.0
141
20.0
290
     0
  0
SCALE
  5
43
102
{ACAD_REACTORS
330
3A
102
}
330
3A
100
AcDbScale
 70
     0
300
1:30
140
1.0
141
30.0
290
     0
  0
SCALE
  5
44
102
{ACAD_REACTORS
330
3A
102
}
330
3A
100
AcDbScale
 70
     0
300
1:40
140
1.0
141
40.0
290
     0
  0
SCALE
  5
45
102
{ACAD_REACTORS
330
3A
102
}
330
3A
100
AcDbScale
 70
     0
300
1:50
140
1.0
141
50.0
290
     0
  0
SCALE
  5
46
102
{ACAD_REACTORS
330
3A
102
}
330
3A
100
AcDbScale
 70
     0
300
1:100
140
1.0
141
100.0
290
     0
  0
SCALE
  5
47
102
{ACAD_REACTORS
330
3A
102
}
330
3A
100
AcDbScale
 70
     0
300
2:1
140
2.0
141
1.0
290
     0
  0
SCALE
  5
48
102
{ACAD_REACTORS
330
3A
102
}
330
3A
100
AcDbScale
 70
     0
300
4:1
140
4.0
141
1.0
290
     0
  0
SCALE
  5
49
102
{ACAD_REACTORS
330
3A
102
}
330
3A
100
AcDbScale
 70
     0
300
8:1
140
8.0
141
1.0
290
     0
  0
SCALE
  5
4A
102
{ACAD_REACTORS
330
3A
102
}
330
3A
100
AcDbScale
 70
     0
300
10:1
140
10.0
141
1.0
290
     0
  0
SCALE
  5
4B
102
{ACAD_REACTORS
330
3A
102
}
330
3A
100
AcDbScale
 70
     0
300
100:1
140
100.0
141
1.0
290
     0
  0
SCALE
  5
4C
102
{ACAD_REACTORS
330
3A
102
}
330
3A
100
AcDbScale
 70
     0
300
1/128" = 1'-0"
140
0.0078125
141
12.0
290
     0
  0
SCALE
  5
4D
102
{ACAD_REACTORS
330
3A
102
}
330
3A
100
AcDbScale
 70
     0
300
1/64" = 1'-0"
140
0.015625
141
12.0
290
     0
  0
SCALE
  5
4E
102
{ACAD_REACTORS
330
3A
102
}
330
3A
100
AcDbScale
 70
     0
300
1/32" = 1'-0"
140
0.03125
141
12.0
290
     0
  0
SCALE
  5
4F
102
{ACAD_REACTORS
330
3A
102
}
330
3A
100
AcDbScale
 70
     0
300
1/16" = 1'-0"
140
0.0625
141
12.0
290
     0
  0
SCALE
  5
50
102
{ACAD_REACTORS
330
3A
102
}
330
3A
100
AcDbScale
 70
     0
300
3/32" = 1'-0"
140
0.09375
141
12.0
290
     0
  0
SCALE
  5
51
102
{ACAD_REACTORS
330
3A
102
}
330
3A
100
AcDbScale
 70
     0
300
1/8" = 1'-0"
140
0.125
141
12.0
290
     0
  0
SCALE
  5
52
102
{ACAD_REACTORS
330
3A
102
}
330
3A
100
AcDbScale
 70
     0
300
3/16" = 1'-0"
140
0.1875
141
12.0
290
     0
  0
SCALE
  5
53
102
{ACAD_REACTORS
330
3A
102
}
330
3A
100
AcDbScale
 70
     0
300
1/4" = 1'-0"
140
0.25
141
12.0
290
     0
  0
SCALE
  5
54
102
{ACAD_REACTORS
330
3A
102
}
330
3A
100
AcDbScale
 70
     0
300
3/8" = 1'-0"
140
0.375
141
12.0
290
     0
  0
SCALE
  5
55
102
{ACAD_REACTORS
330
3A
102
}
330
3A
100
AcDbScale
 70
     0
300
1/2" = 1'-0"
140
0.5
141
12.0
290
     0
  0
SCALE
  5
56
102
{ACAD_REACTORS
330
3A
102
}
330
3A
100
AcDbScale
 70
     0
300
3/4" = 1'-0"
140
0.75
141
12.0
290
     0
  0
SCALE
  5
57
102
{ACAD_REACTORS
330
3A
102
}
330
3A
100
AcDbScale
 70
     0
300
1" = 1'-0"
140
1.0
141
12.0
290
     0
  0
SCALE
  5
58
102
{ACAD_REACTORS
330
3A
102
}
330
3A
100
AcDbScale
 70
     0
300
1-1/2" = 1'-0"
140
1.5
141
12.0
290
     0
  0
SCALE
  5
59
102
{ACAD_REACTORS
330
3A
102
}
330
3A
100
AcDbScale
 70
     0
300
3" = 1'-0"
140
3.0
141
12.0
290
     0
  0
SCALE
  5
5A
102
{ACAD_REACTORS
330
3A
102
}
330
3A
100
AcDbScale
 70
     0
300
6" = 1'-0"
140
6.0
141
12.0
290
     0
  0
SCALE
  5
5B
102
{ACAD_REACTORS
330
3A
102
}
330
3A
100
AcDbScale
 70
     0
300
1'-0" = 1'-0"
140
12.0
141
12.0
290
     0
  0
TABLESTYLE
  5
6D
102
{ACAD_XDICTIONARY
360
806
102
}
102
{ACAD_REACTORS
330
6C
102
}
330
6C
100
AcDbTableStyle
  3
Standard
 70
     0
 71
     0
 40
0.06
 41
0.06
280
     0
281
     0
  7
Standard
140
0.18
170
     2
 62
     0
 63
     7
283
     0
274
    -2
284
     1
 64
     0
275
    -2
285
     1
 65
     0
276
    -2
286
     1
 66
     0
277
    -2
287
     1
 67
     0
278
    -2
288
     1
 68
     0
279
    -2
289
     1
 69
     0
  7
Standard
140
0.25
170
     5
 62
     0
 63
     7
283
     0
274
    -2
284
     1
 64
     0
275
    -2
285
     1
 65
     0
276
    -2
286
     1
 66
     0
277
    -2
287
     1
 67
     0
278
    -2
288
     1
 68
     0
279
    -2
289
     1
 69
     0
  7
Standard
140
0.18
170
     5
 62
     0
 63
     7
283
     0
274
    -2
284
     1
 64
     0
275
    -2
285
     1
 65
     0
276
    -2
286
     1
 66
     0
277
    -2
287
     1
 67
     0
278
    -2
288
     1
 68
     0
279
    -2
289
     1
 69
     0
  0
VISUALSTYLE
  5
2F
102
{ACAD_REACTORS
330
29
102
}
330
29
100
AcDbVisualStyle
  2
2dWireframe
 70
     4
 71
     0
 72
     2
 73
     0
 90
        0
 40
-0.6
 41
-30.0
 62
     5
 63
     7
 74
     1
 91
        4
 64
     7
 65
   257
 75
     1
175
     1
 42
1.0
 92
        0
 66
   257
 43
1.0
 76
     1
 77
     6
 78
     2
 67
     7
 79
     5
170
     0
171
     0
290
     0
174
     0
 93
        1
 44
0.0
173
     0
291
     0
 45
0.0
1001
ACAD
1000
AcDbSavedByObjectVersion
1070
     0
  0
VISUALSTYLE
  5
31
102
{ACAD_REACTORS
330
29
102
}
330
29
100
AcDbVisualStyle
  2
3D Hidden
 70
     6
 71
     1
 72
     2
 73
     2
 90
        0
 40
-0.6
 41
-30.0
 62
     5
 63
     7
 74
     2
 91
        2
 64
     7
 65
   257
 75
     2
175
     1
 42
40.0
 92
        0
 66
   257
 43
1.0
 76
     1
 77
     6
 78
     2
 67
     7
 79
     3
170
     0
171
     0
290
     0
174
     0
 93
        1
 44
0.0
173
     0
291
     0
 45
0.0
1001
ACAD
1000
AcDbSavedByObjectVersion
1070
     0
  0
VISUALSTYLE
  5
30
102
{ACAD_REACTORS
330
29
102
}
330
29
100
AcDbVisualStyle
  2
3dWireframe
 70
     5
 71
     0
 72
     2
 73
     0
 90
        0
 40
-0.6
 41
-30.0
 62
     5
 63
     7
 74
     1
 91
        4
 64
     7
 65
   257
 75
     1
175
     1
 42
1.0
 92
        0
 66
   257
 43
1.0
 76
     1
 77
     6
 78
     2
 67
     7
 79
     5
170
     0
171
     0
290
     0
174
     0
 93
        1
 44
0.0
173
     0
291
     0
 45
0.0
1001
ACAD
1000
AcDbSavedByObjectVersion
1070
     0
  0
VISUALSTYLE
  5
2E
102
{ACAD_REACTORS
330
29
102
}
330
29
100
AcDbVisualStyle
  2
Basic
 70
     7
 71
     1
 72
     0
 73
     1
 90
        0
 40
-0.6
 41
-30.0
 62
     5
 63
     7
 74
     0
 91
        4
 64
     7
 65
   257
 75
     1
175
     1
 42
1.0
 92
        8
 66
     7
 43
1.0
 76
     1
 77
     6
 78
     2
 67
     7
 79
     5
170
     0
171
     0
290
     0
174
     0
 93
        1
 44
0.0
173
     0
291
     1
 45
0.0
1001
ACAD
1000
AcDbSavedByObjectVersion
1070
     0
  0
VISUALSTYLE
  5
35
102
{ACAD_REACTORS
330
29
102
}
330
29
100
AcDbVisualStyle
  2
Brighten
 70
    12
 71
     2
 72
     2
 73
     0
 90
        0
 40
-0.6
 41
-30.0
 62
     5
 63
     7
 74
     1
 91
        4
 64
     7
 65
   257
 75
     1
175
     1
 42
1.0
 92
        8
 66
     7
 43
1.0
 76
     1
 77
     6
 78
     2
 67
     7
 79
     5
170
     0
171
     0
290
     0
174
     0
 93
        1
 44
50.0
173
     0
291
     1
 45
0.0
1001
ACAD
1000
AcDbSavedByObjectVersion
1070
     0
  0
VISUALSTYLE
  5
39
102
{ACAD_REACTORS
330
29
102
}
330
29
100
AcDbVisualStyle
  2
ColorChange
 70
    16
 71
     2
 72
     2
 73
     3
 90
        0
 40
-0.6
 41
-30.0
 62
     5
 63
     8
 74
     1
 91
        4
 64
     7
 65
   257
 75
     1
175
     1
 42
1.0
 92
        8
 66
     8
 43
1.0
 76
     1
 77
     6
 78
     2
 67
     7
 79
     5
170
     0
171
     0
290
     0
174
     0
 93
        1
 44
0.0
173
     0
291
     1
 45
0.0
1001
ACAD
1000
AcDbSavedByObjectVersion
1070
     0
  0
VISUALSTYLE
  5
32
102
{ACAD_REACTORS
330
29
102
}
330
29
100
AcDbVisualStyle
  2
Conceptual
 70
     9
 71
     3
 72
     2
 73
     0
 90
        0
 40
-0.6
 41
-30.0
 62
     5
 63
     7
 74
     2
 91
        2
 64
     7
 65
   257
 75
     1
175
     1
 42
40.0
 92
        8
 66
     7
 43
1.0
 76
     1
 77
     6
 78
     2
 67
     7
 79
     3
170
     0
171
     0
290
     0
174
     0
 93
        1
 44
0.0
173
     0
291
     0
 45
0.0
1001
ACAD
1000
AcDbSavedByObjectVersion
1070
     0
  0
VISUALSTYLE
  5
34
102
{ACAD_REACTORS
330
29
102
}
330
29
100
AcDbVisualStyle
  2
Dim
 70
    11
 71
     2
 72
     2
 73
     0
 90
        0
 40
-0.6
 41
-30.0
 62
     5
 63
     7
 74
     1
 91
        4
 64
     7
 65
   257
 75
     1
175
     1
 42
1.0
 92
        8
 66
     7
 43
1.0
 76
     1
 77
     6
 78
     2
 67
     7
 79
     5
170
     0
171
     0
290
     0
174
     0
 93
        1
 44
-50.0
173
     0
291
     1
 45
0.0
1001
ACAD
1000
AcDbSavedByObjectVersion
1070
     0
  0
VISUALSTYLE
  5
38
102
{ACAD_REACTORS
330
29
102
}
330
29
100
AcDbVisualStyle
  2
Facepattern
 70
    15
 71
     2
 72
     2
 73
     0
 90
        0
 40
-0.6
 41
-30.0
 62
     5
 63
     7
 74
     1
 91
        4
 64
     7
 65
   257
 75
     1
175
     1
 42
1.0
 92
        8
 66
     7
 43
1.0
 76
     1
 77
     6
 78
     2
 67
     7
 79
     5
170
     0
171
     0
290
     0
174
     0
 93
        1
 44
0.0
173
     0
291
     1
 45
0.0
1001
ACAD
1000
AcDbSavedByObjectVersion
1070
     0
  0
VISUALSTYLE
  5
2A
102
{ACAD_REACTORS
330
29
102
}
330
29
100
AcDbVisualStyle
  2
Flat
 70
     0
 71
     2
 72
     1
 73
     1
 90
        2
 40
-0.6
 41
30.0
 62
     5
 63
     7
 74
     0
 91
        4
 64
     7
 65
   257
 75
     1
175
     1
 42
1.0
 92
        8
 66
     7
 43
1.0
 76
     1
 77
     6
 78
     2
 67
     7
 79
     5
170
     0
171
     0
290
     0
174
     0
 93
       13
 44
0.0
173
     0
291
     1
 45
0.0
1001
ACAD
1000
AcDbSavedByObjectVersion
1070
     0
  0
VISUALSTYLE
  5
2B
102
{ACAD_REACTORS
330
29
102
}
330
29
100
AcDbVisualStyle
  2
FlatWithEdges
 70
     1
 71
     2
 72
     1
 73
     1
 90
        2
 40
-0.6
 41
30.0
 62
     5
 63
     7
 74
     1
 91
        4
 64
     7
 65
   257
 75
     1
175
     1
 42
1.0
 92
        0
 66
   257
 43
1.0
 76
     1
 77
     6
 78
     2
 67
     7
 79
     5
170
     0
171
     0
290
     0
174
     0
 93
       13
 44
0.0
173
     0
291
     1
 45
0.0
1001
ACAD
1000
AcDbSavedByObjectVersion
1070
     0
  0
VISUALSTYLE
  5
2C
102
{ACAD_REACTORS
330
29
102
}
330
29
100
AcDbVisualStyle
  2
Gouraud
 70
     2
 71
     2
 72
     2
 73
     1
 90
        2
 40
-0.6
 41
30.0
 62
     5
 63
     7
 74
     0
 91
        4
 64
     7
 65
   257
 75
     1
175
     1
 42
1.0
 92
        0
 66
     7
 43
1.0
 76
     1
 77
     6
 78
     2
 67
     7
 79
     5
170
     0
171
     0
290
     0
174
     0
 93
       13
 44
0.0
173
     0
291
     1
 45
0.0
1001
ACAD
1000
AcDbSavedByObjectVersion
1070
     0
  0
VISUALSTYLE
  5
2D
102
{ACAD_REACTORS
330
29
102
}
330
29
100
AcDbVisualStyle
  2
GouraudWithEdges
 70
     3
 71
     2
 72
     2
 73
     1
 90
        2
 40
-0.6
 41
30.0
 62
     5
 63
     7
 74
     1
 91
        4
 64
     7
 65
   257
 75
     1
175
     1
 42
1.0
 92
        0
 66
   257
 43
1.0
 76
     1
 77
     6
 78
     2
 67
     7
 79
     5
170
     0
171
     0
290
     0
174
     0
 93
       13
 44
0.0
173
     0
291
     1
 45
0.0
1001
ACAD
1000
AcDbSavedByObjectVersion
1070
     0
  0
VISUALSTYLE
  5
37
102
{ACAD_REACTORS
330
29
102
}
330
29
100
AcDbVisualStyle
  2
Linepattern
 70
    14
 71
     2
 72
     2
 73
     0
 90
        0
 40
-0.6
 41
-30.0
 62
     5
 63
     7
 74
     1
 91
        4
 64
     7
 65
   257
 75
     7
175
     7
 42
1.0
 92
        8
 66
     7
 43
1.0
 76
     1
 77
     6
 78
     2
 67
     7
 79
     5
170
     0
171
     0
290
     0
174
     0
 93
        1
 44
0.0
173
     0
291
     1
 45
0.0
1001
ACAD
1000
AcDbSavedByObjectVersion
1070
     0
  0
VISUALSTYLE
  5
33
102
{ACAD_REACTORS
330
29
102
}
330
29
100
AcDbVisualStyle
  2
Realistic
 70
     8
 71
     2
 72
     2
 73
     0
 90
        0
 40
-0.6
 41
-30.0
 62
     5
 63
     7
 74
     1
 91
        0
 64
     7
 65
   257
 75
     1
175
     1
 42
1.0
 92
        8
 66
     8
 43
1.0
 76
     1
 77
     6
 78
     2
 67
     7
 79
     5
170
     0
171
     0
290
     0
174
     0
 93
       13
 44
0.0
173
     0
291
     0
 45
0.0
1001
ACAD
1000
AcDbSavedByObjectVersion
1070
     0
  0
VISUALSTYLE
  5
36
102
{ACAD_REACTORS
330
29
102
}
330
29
100
AcDbVisualStyle
  2
Thicken
 70
    13
 71
     2
 72
     2
 73
     0
 90
        0
 40
-0.6
 41
-30.0
 62
     5
 63
     7
 74
     1
 91
        4
 64
     7
 65
   257
 75
     1
175
     1
 42
1.0
 92
       12
 66
     7
 43
1.0
 76
     1
 77
     6
 78
     2
 67
     7
 79
     5
170
     0
171
     0
290
     0
174
     0
 93
        1
 44
0.0
173
     0
291
     1
 45
0.0
1001
ACAD
1000
AcDbSavedByObjectVersion
1070
     0
  0
DICTIONARYVAR
  5
800
102
{ACAD_REACTORS
330
7FC
102
}
330
7FC
100
DictionaryVariables
280
     0
  1
1:1
  0
DICTIONARYVAR
  5
7FE
102
{ACAD_REACTORS
330
7FC
102
}
330
7FC
100
DictionaryVariables
280
     0
  1
STANDARD
  0
DICTIONARYVAR
  5
7FD
102
{ACAD_REACTORS
330
7FC
102
}
330
7FC
100
DictionaryVariables
280
     0
  1
STANDARD
  0
DICTIONARYVAR
  5
805
102
{ACAD_REACTORS
330
7FC
102
}
330
7FC
100
DictionaryVariables
280
     0
  1
1
  0
DICTIONARYVAR
  5
804
102
{ACAD_REACTORS
330
7FC
102
}
330
7FC
100
DictionaryVariables
280
     0
  1
1
  0
DICTIONARYVAR
  5
803
102
{ACAD_REACTORS
330
7FC
102
}
330
7FC
100
DictionaryVariables
280
     0
  1
0
  0
DICTIONARYVAR
  5
801
102
{ACAD_REACTORS
330
7FC
102
}
330
7FC
100
DictionaryVariables
280
     0
  1
2
  0
DICTIONARYVAR
  5
7FF
102
{ACAD_REACTORS
330
7FC
102
}
330
7FC
100
DictionaryVariables
280
     0
  1
1
  0
DICTIONARYVAR
  5
802
102
{ACAD_REACTORS
330
7FC
102
}
330
7FC
100
DictionaryVariables
280
     0
  1
127
  0
DICTIONARY
  5
80E
330
74
100
AcDbDictionary
280
     1
281
     1
  3
ACAD_XREC_ROUNDTRIP
360
80F
  0
DICTIONARY
  5
812
330
7C
100
AcDbDictionary
280
     1
281
     1
  3
ACAD_XREC_ROUNDTRIP
360
813
  0
DICTIONARY
  5
810
330
78
100
AcDbDictionary
280
     1
281
     1
  3
ACAD_XREC_ROUNDTRIP
360
811
  0
DICTIONARY
  5
1A
330
19
100
AcDbDictionary
280
     1
281
     1
  3
ACAD_XREC_ROUNDTRIP
360
80B
  3
BUMPTILE
360
1C
  3
DIFFUSETILE
360
1B
  3
OPACITYTILE
360
1F
  3
REFLECTIONTILE
360
1E
  3
REFRACTIONTILE
360
20
  3
SPECULARTILE
360
1D
  0
DICTIONARY
  5
12
330
11
100
AcDbDictionary
280
     1
281
     1
  3
ACAD_XREC_ROUNDTRIP
360
80A
  3
BUMPTILE
360
14
  3
DIFFUSETILE
360
13
  3
OPACITYTILE
360
17
  3
REFLECTIONTILE
360
16
  3
REFRACTIONTILE
360
18
  3
SPECULARTILE
360
15
  0
DICTIONARY
  5
22
330
21
100
AcDbDictionary
280
     1
281
     1
  3
ACAD_XREC_ROUNDTRIP
360
80C
  3
BUMPTILE
360
24
  3
DIFFUSETILE
360
23
  3
OPACITYTILE
360
27
  3
REFLECTIONTILE
360
26
  3
REFRACTIONTILE
360
28
  3
SPECULARTILE
360
25
  0
DICTIONARY
  5
806
330
6D
100
AcDbDictionary
280
     1
281
     1
  3
ACAD_ROUNDTRIP_2008_TABLESTYLE_CELLSTYLEMAP
360
807
  3
ACAD_XREC_ROUNDTRIP
360
80D
  0
XRECORD
  5
80F
102
{ACAD_REACTORS
330
80E
102
}
330
80E
100
AcDbXrecord
280
     1
102
SHADEPLOT
 70
     0
102
SHADEPLOTRESLEVEL
 70
     2
102
SHADEPLOTCUSTOMDPI
 70
   300
  0
XRECORD
  5
813
102
{ACAD_REACTORS
330
812
102
}
330
812
100
AcDbXrecord
280
     1
102
SHADEPLOT
 70
     0
102
SHADEPLOTRESLEVEL
 70
     2
102
SHADEPLOTCUSTOMDPI
 70
   300
  0
XRECORD
  5
811
102
{ACAD_REACTORS
330
810
102
}
330
810
100
AcDbXrecord
280
     1
102
SHADEPLOT
 70
     0
102
SHADEPLOTRESLEVEL
 70
     2
102
SHADEPLOTCUSTOMDPI
 70
   300
  0
XRECORD
  5
80B
102
{ACAD_REACTORS
330
1A
102
}
330
1A
100
AcDbXrecord
280
     1
102
MATERIAL
148
0.0
149
0.0
149
0.0
 93
        0
 94
      127
282
     0
 72
     0
 77
     0
171
     0
175
     0
179
     0
273
     0
  0
XRECORD
  5
1C
102
{ACAD_REACTORS
330
1A
102
}
330
1A
100
AcDbXrecord
280
     1
270
     1
271
     1
  0
XRECORD
  5
1B
102
{ACAD_REACTORS
330
1A
102
}
330
1A
100
AcDbXrecord
280
     1
270
     1
271
     1
  0
XRECORD
  5
1F
102
{ACAD_REACTORS
330
1A
102
}
330
1A
100
AcDbXrecord
280
     1
270
     1
271
     1
  0
XRECORD
  5
1E
102
{ACAD_REACTORS
330
1A
102
}
330
1A
100
AcDbXrecord
280
     1
270
     1
271
     1
  0
XRECORD
  5
20
102
{ACAD_REACTORS
330
1A
102
}
330
1A
100
AcDbXrecord
280
     1
270
     1
271
     1
  0
XRECORD
  5
1D
102
{ACAD_REACTORS
330
1A
102
}
330
1A
100
AcDbXrecord
280
     1
270
     1
271
     1
  0
XRECORD
  5
80A
102
{ACAD_REACTORS
330
12
102
}
330
12
100
AcDbXrecord
280
     1
102
MATERIAL
148
0.0
149
0.0
149
0.0
 93
        0
 94
      127
282
     0
 72
     0
 77
     0
171
     0
175
     0
179
     0
273
     0
  0
XRECORD
  5
14
102
{ACAD_REACTORS
330
12
102
}
330
12
100
AcDbXrecord
280
     1
270
     1
271
     1
  0
XRECORD
  5
13
102
{ACAD_REACTORS
330
12
102
}
330
12
100
AcDbXrecord
280
     1
270
     1
271
     1
  0
XRECORD
  5
17
102
{ACAD_REACTORS
330
12
102
}
330
12
100
AcDbXrecord
280
     1
270
     1
271
     1
  0
XRECORD
  5
16
102
{ACAD_REACTORS
330
12
102
}
330
12
100
AcDbXrecord
280
     1
270
     1
271
     1
  0
XRECORD
  5
18
102
{ACAD_REACTORS
330
12
102
}
330
12
100
AcDbXrecord
280
     1
270
     1
271
     1
  0
XRECORD
  5
15
102
{ACAD_REACTORS
330
12
102
}
330
12
100
AcDbXrecord
280
     1
270
     1
271
     1
  0
XRECORD
  5
80C
102
{ACAD_REACTORS
330
22
102
}
330
22
100
AcDbXrecord
280
     1
102
MATERIAL
148
0.0
149
0.0
149
0.0
 93
        0
 94
      127
282
     0
 72
     0
 77
     0
171
     0
175
     0
179
     0
273
     0
  0
XRECORD
  5
24
102
{ACAD_REACTORS
330
22
102
}
330
22
100
AcDbXrecord
280
     1
270
     1
271
     1
  0
XRECORD
  5
23
102
{ACAD_REACTORS
330
22
102
}
330
22
100
AcDbXrecord
280
     1
270
     1
271
     1
  0
XRECORD
  5
27
102
{ACAD_REACTORS
330
22
102
}
330
22
100
AcDbXrecord
280
     1
270
     1
271
     1
  0
XRECORD
  5
26
102
{ACAD_REACTORS
330
22
102
}
330
22
100
AcDbXrecord
280
     1
270
     1
271
     1
  0
XRECORD
  5
28
102
{ACAD_REACTORS
330
22
102
}
330
22
100
AcDbXrecord
280
     1
270
     1
271
     1
  0
XRECORD
  5
25
102
{ACAD_REACTORS
330
22
102
}
330
22
100
AcDbXrecord
280
     1
270
     1
271
     1
  0
CELLSTYLEMAP
  5
807
102
{ACAD_REACTORS
330
806
102
}
330
806
100
AcDbCellStyleMap
 90
        3
300
CELLSTYLE
  1
TABLEFORMAT_BEGIN
 90
        5
170
     1
 91
        0
 92
    32768
 62
   257
 93
        1
300
CONTENTFORMAT
  1
CONTENTFORMAT_BEGIN
 90
        0
 91
        0
 92
      512
 93
        0
300

 40
0.0
140
1.0
 94
        5
 62
     0
340
5D
144
0.25
309
CONTENTFORMAT_END
171
     0
 94
        0
309
TABLEFORMAT_END
  1
CELLSTYLE_BEGIN
 90
        1
 91
        1
300
_TITLE
309
CELLSTYLE_END
300
CELLSTYLE
  1
TABLEFORMAT_BEGIN
 90
        5
170
     1
 91
        0
 92
        0
 62
   257
 93
        1
300
CONTENTFORMAT
  1
CONTENTFORMAT_BEGIN
 90
        0
 91
        0
 92
      512
 93
        0
300

 40
0.0
140
1.0
 94
        5
 62
     0
340
5D
144
0.18
309
CONTENTFORMAT_END
171
     0
 94
        0
309
TABLEFORMAT_END
  1
CELLSTYLE_BEGIN
 90
        2
 91
        1
300
_HEADER
309
CELLSTYLE_END
300
CELLSTYLE
  1
TABLEFORMAT_BEGIN
 90
        5
170
     1
 91
        0
 92
        0
 62
   257
 93
        1
300
CONTENTFORMAT
  1
CONTENTFORMAT_BEGIN
 90
        0
 91
        0
 92
      512
 93
        0
300

 40
0.0
140
1.0
 94
        2
 62
     0
340
5D
144
0.18
309
CONTENTFORMAT_END
171
     0
 94
        0
309
TABLEFORMAT_END
  1
CELLSTYLE_BEGIN
 90
        3
 91
        2
300
_DATA
309
CELLSTYLE_END
  0
XRECORD
  5
80D
102
{ACAD_REACTORS
330
806
102
}
330
806
100
AcDbXrecord
280
     1
102
ACAD_ROUNDTRIP_PRE2007_TABLESTYLE
 90
      512
 91
        0
  1

 92
      512
 93
        0
  2

 94
      512
 95
        0
  3

  0
ENDSEC
  0
EOF
